找回密码

蓝光电影网

查看: 23|回复: 0

[其他] 情歌季节.Season.For.Love.Songs.2018.VIETNAMESE.ENSUBBED.1080p.AMZN.WEBRip.DDP2.0.x264-RSG 6.77GB

[复制链接]
蓝光币
1080
发表于 2023-1-12 18:06:16 | 显示全部楼层 |阅读模式


◎译  名 情歌季节
◎片  名 Mùa Vi?t Tình Ca
◎年  代 2018
◎产  地 越南
◎类  别 音乐
◎语  言 越南语
◎上映日期 2018-08-31(越南)
◎IMDb链接 https://www.imdb.com/title/tt9076868/
◎豆瓣链接 https://movie.douban.com/subject/30283210/
◎导  演 李明胜 Minh Thang Ly
◎演  员 范刘俊才 Issac
       Puka Puka
       志才 Chí Tài
◎简  介
  为了逢迎市场,年轻的音乐家保忠因涉嫌“盗版”,饱受言论的进犯。无法当中,他放弃一切跑到海边城市美奈,决心创作一首轻音乐以重振自己的名声。在偶遇失恋的李蓝后,他的回避之行变得加倍“风趣”,并写出了心灵深处的旋律。
  1. Video
  2. ID                                       : 1
  3. Format                                   : AVC
  4. Format/Info                              : Advanced Video Codec
  5. Format profile                           : [email protected]
  6. Format settings                          : CABAC / 4 Ref Frames
  7. Format settings, CABAC                   : Yes
  8. Format settings, Reference frames        : 4 frames
  9. Codec ID                                 : V_MPEG4/ISO/AVC
  10. Duration                                 : 1 h 47 min
  11. Bit rate mode                            : Constant
  12. Bit rate                                 : 8 815 kb/s
  13. Nominal bit rate                         : 10 000 kb/s
  14. Width                                    : 1 920 pixels
  15. Height                                   : 816 pixels
  16. Display aspect ratio                     : 2.35:1
  17. Frame rate mode                          : Constant
  18. Frame rate                               : 24.000 FPS
  19. Color space                              : YUV
  20. Chroma subsampling                       : 4:2:0
  21. Bit depth                                : 8 bits
  22. Scan type                                : Progressive
  23. Bits/(Pixel*Frame)                       : 0.234
  24. Stream size                              : 6.60 GiB (98%)
  25. Title                                    : Season.For.Love.Songs.2018.1080p.AMZN.HC.WEB-DL.DDP2.0.H.264-RSG
  26. Default                                  : Yes
  27. Forced                                   : No
  28. Color range                              : Limited
  29. Color primaries                          : BT.709
  30. Transfer characteristics                 : BT.709
  31. Matrix coefficients                      : BT.709
  32. Audio
  33. ID                                       : 2
  34. Format                                   : E-AC-3
  35. Format/Info                              : Enhanced AC-3
  36. Commercial name                          : Dolby Digital Plus
  37. Codec ID                                 : A_EAC3
  38. Duration                                 : 1 h 47 min
  39. Bit rate mode                            : Constant
  40. Bit rate                                 : 224 kb/s
  41. Channel(s)                               : 2 channels
  42. Channel layout                           : L R
  43. Sampling rate                            : 48.0 kHz
  44. Frame rate                               : 31.250 FPS (1536 SPF)
  45. Compression mode                         : Lossy
  46. Stream size                              : 172 MiB (2%)
  47. Title                                    : Season.For.Love.Songs.2018.1080p.AMZN.HC.WEB-DL.DDP2.0.H.264-RSG
  48. Language                                 : Vietnamese
  49. Service kind                             : Complete Main
  50. Default                                  : Yes
  51. Forced                                   : No
复制代码











回复

使用道具 举报

懒得打字嘛,点击右侧快捷回复 【右侧内容,后台自定义】
您需要登录后才可以回帖 登录 | 立即加入

本版积分规则

Archiver|小黑屋| 蓝光电影网 |网站地图

Copyright © 2021 Comsenz Inc. Powered by 蓝光电影网

蓝光电影网

本站内容由用户自主分享和转载自互联网,转载目的在于传递更多信息,并不代表本网赞同其观点和对其真实性负责。

如有侵权、违反国家法律政策行为,请联系我们,我们会第一时间及时清除和处理!

举报反馈邮箱:[email protected]

快速回复 返回顶部 返回列表