找回密码

蓝光电影网

查看: 31|回复: 1

[喜剧] 喜剧片的黄金时代.The.Golden.Age.of.Comedy.1957.1080p.AMZN.WEBRip.DDP2.0.x264-QOQ 7.31GB

[复制链接]
蓝光币
1084
发表于 2023-1-12 18:06:17 | 显示全部楼层 |阅读模式


◎译  名 笑剧片的黄金时代
◎片  名 The Golden Age of Comedy
◎年  代 1957
◎产  地 美国
◎类  别 笑剧 / 记载片
◎语  言 英语
◎上映日期 1957-12-26
◎IMDb链接 https://www.imdb.com/title/tt0129119/
◎豆瓣链接 https://movie.douban.com/subject/1958821/
◎片  长 79 分钟
◎导  演 罗伯特·扬森 Robert Youngson
◎编  剧 罗伯特·扬森 Robert Youngson
       雷内·克莱尔 René Clair
◎演  员 Ward Wilson Ward Wilson
       Dwight Weist Dwight Weist
       罗伯特·扬森 Robert Youngson
◎简  介
  Buster Keaton、Harold Lloyd、Our Gang和W.C.Fields几部影片的合辑。
  1. Video
  2. ID                                       : 1
  3. Format                                   : AVC
  4. Format/Info                              : Advanced Video Codec
  5. Format profile                           : [email protected]
  6. Format settings                          : CABAC / 4 Ref Frames
  7. Format settings, CABAC                   : Yes
  8. Format settings, Reference frames        : 4 frames
  9. Codec ID                                 : V_MPEG4/ISO/AVC
  10. Duration                                 : 1 h 15 min
  11. Bit rate mode                            : Variable
  12. Bit rate                                 : 13.6 Mb/s
  13. Maximum bit rate                         : 15.0 Mb/s
  14. Width                                    : 1 440 pixels
  15. Height                                   : 1 080 pixels
  16. Display aspect ratio                     : 4:3
  17. Frame rate mode                          : Constant
  18. Frame rate                               : 23.976 (24000/1001) FPS
  19. Color space                              : YUV
  20. Chroma subsampling                       : 4:2:0
  21. Bit depth                                : 8 bits
  22. Scan type                                : Progressive
  23. Bits/(Pixel*Frame)                       : 0.364
  24. Stream size                              : 7.19 GiB (98%)
  25. Default                                  : Yes
  26. Forced                                   : No
  27. Color range                              : Limited
  28. Color primaries                          : BT.709
  29. Transfer characteristics                 : BT.709
  30. Matrix coefficients                      : BT.709
  31. Audio
  32. ID                                       : 2
  33. Format                                   : E-AC-3
  34. Format/Info                              : Enhanced AC-3
  35. Commercial name                          : Dolby Digital Plus
  36. Codec ID                                 : A_EAC3
  37. Duration                                 : 1 h 15 min
  38. Bit rate mode                            : Constant
  39. Bit rate                                 : 224 kb/s
  40. Channel(s)                               : 2 channels
  41. Channel layout                           : L R
  42. Sampling rate                            : 48.0 kHz
  43. Frame rate                               : 31.250 FPS (1536 SPF)
  44. Compression mode                         : Lossy
  45. Stream size                              : 121 MiB (2%)
  46. Language                                 : English
  47. Service kind                             : Complete Main
  48. Default                                  : Yes
  49. Forced                                   : No
  50. Text
  51. ID                                       : 3
  52. Format                                   : UTF-8
  53. Codec ID                                 : S_TEXT/UTF8
  54. Codec ID/Info                            : UTF-8 Plain Text
  55. Duration                                 : 1 h 15 min
  56. Bit rate                                 : 49 b/s
  57. Frame rate                               : 0.157 FPS
  58. Count of elements                        : 713
  59. Stream size                              : 27.6 KiB (0%)
  60. Title                                    : English [CC]
  61. Language                                 : English
  62. Default                                  : No
  63. Forced                                   : No
复制代码











回复

使用道具 举报

蓝光币
799
发表于 2023-1-13 14:25:05 | 显示全部楼层
感谢楼主无私奉献
回复 支持 反对

使用道具 举报

懒得打字嘛,点击右侧快捷回复 【右侧内容,后台自定义】
您需要登录后才可以回帖 登录 | 立即加入

本版积分规则

Archiver|小黑屋| 蓝光电影网 |网站地图

Copyright © 2021 Comsenz Inc. Powered by 蓝光电影网

蓝光电影网

本站内容由用户自主分享和转载自互联网,转载目的在于传递更多信息,并不代表本网赞同其观点和对其真实性负责。

如有侵权、违反国家法律政策行为,请联系我们,我们会第一时间及时清除和处理!

举报反馈邮箱:[email protected]

快速回复 返回顶部 返回列表