找回密码

蓝光电影网

查看: 25|回复: 0

[喜剧] 故事[中文字幕].The.Gossip.2021.KOREAN.1080p.AMZN.WEBRip.DDP5.1.x264-Archie 5.42GB

[复制链接]
蓝光币
1084
发表于 2023-1-12 18:06:17 | 显示全部楼层 |阅读模式


◎标  题 故事
◎译  名 低潮 / 很是八卦(台) / The Gossip
◎片  名 썰
◎年  代 2021
◎产  地 韩国
◎类  别 笑剧 / 悬疑 / 惊悚 / 可骇
◎语  言 韩语
◎上映日期 2021-06-03(韩国)
◎IMDb评分 4.2/10 (28人评价)
◎IMDb链接 https://www.imdb.com/title/tt14787206/
◎豆瓣链接 https://movie.douban.com/subject/35259355/
◎片  长 84分钟
◎简  介
    《故事》描画了了聚集在一个空间里的人们聊天时发生的骚乱。                                                                      郑进永将以处理师的脚色退场。澯熙将饰演一位来打工时被卷入事务的失业预备生,他将作为配角率领电影。(by 哎一股清流)
  1. Video
  2. ID                                       : 1
  3. Format                                   : AVC
  4. Format/Info                              : Advanced Video Codec
  5. Format profile                           : [email protected]
  6. Format settings                          : CABAC / 4 Ref Frames
  7. Format settings, CABAC                   : Yes
  8. Format settings, Reference frames        : 4 frames
  9. Codec ID                                 : V_MPEG4/ISO/AVC
  10. Duration                                 : 1 h 24 min
  11. Bit rate mode                            : Constant
  12. Bit rate                                 : 8 560 kb/s
  13. Nominal bit rate                         : 10 000 kb/s
  14. Width                                    : 1 920 pixels
  15. Height                                   : 800 pixels
  16. Display aspect ratio                     : 2.40:1
  17. Frame rate mode                          : Constant
  18. Frame rate                               : 23.976 (24000/1001) FPS
  19. Color space                              : YUV
  20. Chroma subsampling                       : 4:2:0
  21. Bit depth                                : 8 bits
  22. Scan type                                : Progressive
  23. Bits/(Pixel*Frame)                       : 0.232
  24. Stream size                              : 5.04 GiB (93%)
  25. Default                                  : Yes
  26. Forced                                   : No
  27. Color range                              : Limited
  28. Color primaries                          : BT.709
  29. Transfer characteristics                 : BT.709
  30. Matrix coefficients                      : BT.709
  31. Audio
  32. ID                                       : 2
  33. Format                                   : E-AC-3
  34. Format/Info                              : Enhanced AC-3
  35. Commercial name                          : Dolby Digital Plus
  36. Codec ID                                 : A_EAC3
  37. Duration                                 : 1 h 24 min
  38. Bit rate mode                            : Constant
  39. Bit rate                                 : 640 kb/s
  40. Channel(s)                               : 6 channels
  41. Channel layout                           : L R C LFE Ls Rs
  42. Sampling rate                            : 48.0 kHz
  43. Frame rate                               : 31.250 FPS (1536 SPF)
  44. Compression mode                         : Lossy
  45. Stream size                              : 386 MiB (7%)
  46. Language                                 : Korean
  47. Service kind                             : Complete Main
  48. Default                                  : Yes
  49. Forced                                   : No
  50. Text #1
  51. ID                                       : 3
  52. Format                                   : UTF-8
  53. Codec ID                                 : S_TEXT/UTF8
  54. Codec ID/Info                            : UTF-8 Plain Text
  55. Duration                                 : 1 h 20 min
  56. Bit rate                                 : 45 b/s
  57. Frame rate                               : 0.207 FPS
  58. Count of elements                        : 999
  59. Stream size                              : 26.9 KiB (0%)
  60. Language                                 : English (US)
  61. Default                                  : No
  62. Forced                                   : No
  63. Text #2
  64. ID                                       : 4
  65. Format                                   : UTF-8
  66. Codec ID                                 : S_TEXT/UTF8
  67. Codec ID/Info                            : UTF-8 Plain Text
  68. Duration                                 : 1 h 23 min
  69. Bit rate                                 : 48 b/s
  70. Frame rate                               : 0.200 FPS
  71. Count of elements                        : 1004
  72. Stream size                              : 29.6 KiB (0%)
  73. Language                                 : fil (PH)
  74. Default                                  : No
  75. Forced                                   : No
  76. Text #3
  77. ID                                       : 5
  78. Format                                   : UTF-8
  79. Codec ID                                 : S_TEXT/UTF8
  80. Codec ID/Info                            : UTF-8 Plain Text
  81. Duration                                 : 1 h 23 min
  82. Bit rate                                 : 47 b/s
  83. Frame rate                               : 0.200 FPS
  84. Count of elements                        : 1005
  85. Stream size                              : 29.2 KiB (0%)
  86. Language                                 : Indonesian (ID)
  87. Default                                  : No
  88. Forced                                   : No
  89. Text #4
  90. ID                                       : 6
  91. Format                                   : UTF-8
  92. Codec ID                                 : S_TEXT/UTF8
  93. Codec ID/Info                            : UTF-8 Plain Text
  94. Duration                                 : 1 h 21 min
  95. Bit rate                                 : 42 b/s
  96. Frame rate                               : 0.205 FPS
  97. Count of elements                        : 1001
  98. Stream size                              : 25.2 KiB (0%)
  99. Language                                 : Malay (MY)
  100. Default                                  : No
  101. Forced                                   : No
  102. Text #5
  103. ID                                       : 7
  104. Format                                   : UTF-8
  105. Codec ID                                 : S_TEXT/UTF8
  106. Codec ID/Info                            : UTF-8 Plain Text
  107. Duration                                 : 1 h 20 min
  108. Bit rate                                 : 118 b/s
  109. Frame rate                               : 0.208 FPS
  110. Count of elements                        : 1004
  111. Stream size                              : 69.7 KiB (0%)
  112. Language                                 : Thai (TH)
  113. Default                                  : No
  114. Forced                                   : No
  115. Text #6
  116. ID                                       : 8
  117. Format                                   : UTF-8
  118. Codec ID                                 : S_TEXT/UTF8
  119. Codec ID/Info                            : UTF-8 Plain Text
  120. Duration                                 : 1 h 20 min
  121. Bit rate                                 : 47 b/s
  122. Frame rate                               : 0.209 FPS
  123. Count of elements                        : 1008
  124. Stream size                              : 28.1 KiB (0%)
  125. Title                                    : Simplified
  126. Language                                 : Chinese (Simplied)
  127. Default                                  : No
  128. Forced                                   : No
  129. Text #7
  130. ID                                       : 9
  131. Format                                   : UTF-8
  132. Codec ID                                 : S_TEXT/UTF8
  133. Codec ID/Info                            : UTF-8 Plain Text
  134. Duration                                 : 1 h 20 min
  135. Bit rate                                 : 44 b/s
  136. Frame rate                               : 0.208 FPS
  137. Count of elements                        : 1004
  138. Stream size                              : 26.4 KiB (0%)
  139. Title                                    : Traditional
  140. Language                                 : Chinese (Traditional)
  141. Default                                  : No
  142. Forced                                   : No
  143. Menu
  144. 01:22:00.795                             : en:End Credits
复制代码











回复

使用道具 举报

懒得打字嘛,点击右侧快捷回复 【右侧内容,后台自定义】
您需要登录后才可以回帖 登录 | 立即加入

本版积分规则

Archiver|小黑屋| 蓝光电影网 |网站地图

Copyright © 2021 Comsenz Inc. Powered by 蓝光电影网

蓝光电影网

本站内容由用户自主分享和转载自互联网,转载目的在于传递更多信息,并不代表本网赞同其观点和对其真实性负责。

如有侵权、违反国家法律政策行为,请联系我们,我们会第一时间及时清除和处理!

举报反馈邮箱:[email protected]

快速回复 返回顶部 返回列表