找回密码

蓝光电影网

查看: 22|回复: 0

[恐怖] X魔兽.X.Moor.2014.1080p.AMZN.WEBRip.DDP5.1.x264-THR 4.64GB

[复制链接]
蓝光币
1084
发表于 2023-1-12 18:06:17 | 显示全部楼层 |阅读模式


◎标  题 X魔兽
◎片  名 X Moor
◎年  代 2014
◎产  地 英国
◎类  别 可骇
◎语  言 英语
◎上映日期 2014-08-25(英国)
◎IMDb评分 4/10 (759人评价)
◎IMDb链接 https://www.imdb.com/title/tt3293138/
◎豆瓣链接 https://movie.douban.com/subject/26582261/
◎片  长 76min
◎演  员 索菲哈克尼斯 Sophie Harkness
◎简  介
    猎奇心强又活破好动的乔吉雅,一向压服男友麦特前往英国乡下寻觅传闻中怪兽伊克斯莫尔的踪影,用亲身拍摄的影象,向众人证实他的存在。途中他们碰到具有20几年狩猎经历的猎人福克斯,他以为怪物已经吃过人肉,担忧两人的安危,所以愿意当两人的嚮导,配合揭发究竟。因而在进入使人梗塞的茂盛森林以后,凝重的空气与可骇的氛围将他们团团围绕,而福克斯居然逆转成为猎人的囊中猎物
  1. Video
  2. ID                                       : 1
  3. Format                                   : AVC
  4. Format/Info                              : Advanced Video Codec
  5. Format profile                           : [email protected]
  6. Format settings                          : CABAC / 4 Ref Frames
  7. Format settings, CABAC                   : Yes
  8. Format settings, Reference frames        : 4 frames
  9. Codec ID                                 : V_MPEG4/ISO/AVC
  10. Duration                                 : 1 h 23 min
  11. Bit rate mode                            : Constant
  12. Bit rate                                 : 7 278 kb/s
  13. Nominal bit rate                         : 10 000 kb/s
  14. Width                                    : 1 920 pixels
  15. Height                                   : 1 080 pixels
  16. Display aspect ratio                     : 16:9
  17. Frame rate mode                          : Constant
  18. Frame rate                               : 24.000 FPS
  19. Color space                              : YUV
  20. Chroma subsampling                       : 4:2:0
  21. Bit depth                                : 8 bits
  22. Scan type                                : Progressive
  23. Bits/(Pixel*Frame)                       : 0.146
  24. Stream size                              : 4.26 GiB (92%)
  25. Default                                  : Yes
  26. Forced                                   : No
  27. Color range                              : Limited
  28. Color primaries                          : BT.709
  29. Transfer characteristics                 : BT.709
  30. Matrix coefficients                      : BT.709
  31. Audio
  32. ID                                       : 2
  33. Format                                   : E-AC-3
  34. Format/Info                              : Enhanced AC-3
  35. Commercial name                          : Dolby Digital Plus
  36. Codec ID                                 : A_EAC3
  37. Duration                                 : 1 h 23 min
  38. Bit rate mode                            : Constant
  39. Bit rate                                 : 640 kb/s
  40. Channel(s)                               : 6 channels
  41. Channel layout                           : L R C LFE Ls Rs
  42. Sampling rate                            : 48.0 kHz
  43. Frame rate                               : 31.250 FPS (1536 SPF)
  44. Compression mode                         : Lossy
  45. Stream size                              : 384 MiB (8%)
  46. Language                                 : English
  47. Service kind                             : Complete Main
  48. Default                                  : Yes
  49. Forced                                   : No
  50. Text
  51. ID                                       : 3
  52. Format                                   : UTF-8
  53. Codec ID                                 : S_TEXT/UTF8
  54. Codec ID/Info                            : UTF-8 Plain Text
  55. Duration                                 : 1 h 18 min
  56. Bit rate                                 : 41 b/s
  57. Frame rate                               : 0.170 FPS
  58. Count of elements                        : 799
  59. Stream size                              : 23.6 KiB (0%)
  60. Language                                 : English
  61. Default                                  : No
  62. Forced                                   : No
复制代码











回复

使用道具 举报

懒得打字嘛,点击右侧快捷回复 【右侧内容,后台自定义】
您需要登录后才可以回帖 登录 | 立即加入

本版积分规则

Archiver|小黑屋| 蓝光电影网 |网站地图

Copyright © 2021 Comsenz Inc. Powered by 蓝光电影网

蓝光电影网

本站内容由用户自主分享和转载自互联网,转载目的在于传递更多信息,并不代表本网赞同其观点和对其真实性负责。

如有侵权、违反国家法律政策行为,请联系我们,我们会第一时间及时清除和处理!

举报反馈邮箱:[email protected]

快速回复 返回顶部 返回列表