找回密码

蓝光电影网

查看: 81|回复: 0

[剧情] 无名旅馆.The.Nowhere.Inn.2020.iNTERNAL.1080p.BluRay.x264-PEGASUS 9.19GB

[复制链接]
蓝光币
1084
发表于 2023-1-13 16:03:47 | 显示全部楼层 |阅读模式


◎标  题 知名旅店
◎片  名 The Nowhere Inn
◎年  代 2020
◎产  地 美国
◎类  别 剧情 / 音乐
◎语  言 英语
◎上映日期 2020-01-25(圣丹斯电影节) / 2021-09-17(美国)
◎IMDb评分 5.9/10 (672人评价)
◎IMDb链接 https://www.imdb.com/title/tt10441822/
◎豆瓣评分 6.8/10 (121人评价)
◎豆瓣链接 https://movie.douban.com/subject/34907396/
◎片  长 91分钟
◎编  剧 凯瑞·布朗斯汀 Carrie Brownstein
       圣·文森特 St. Vincent
◎演  员 圣·文森特 St. Vincent
       凯瑞·布朗斯汀 Carrie Brownstein
       克里斯·阿基利诺 Chris Aquilino
       迈克尔·博夫舍维尔 Michael Bofshever
       莱亚·吉斯特德 Rya Kihlstedt
       盖·纳尔杜利 Guy Nardulli
       艾莎·迪伊 Aisha Dee
       约翰·艾尔瓦德 John Aylward
       罗伯特·米亚诺 Robert Miano
       雪伊德林恩 Shae D'lyn
       史蒂夫·兰金 Steve Rankin
       杰克·拉·博兹 Jake La Botz
        Nick Smoke
       Linda Kerns Linda Kerns
◎标  签 St.Vincent / 音乐 / 美国 / 列传 / 2020 / 姬 / CarrieBrownstein / 电影
◎简  介
  St. Vincent sets out to make a documentary about her music, but when she hires a close friend to direct, notions of reality, identity, and authenticity grow increasingly distorted and bizarre.
  1. Video
  2. ID                                       : 1
  3. Format                                   : AVC
  4. Format/Info                              : Advanced Video Codec
  5. Format profile                           : [email protected]
  6. Format settings                          : CABAC / 4 Ref Frames
  7. Format settings, CABAC                   : Yes
  8. Format settings, Reference frames        : 4 frames
  9. Codec ID                                 : V_MPEG4/ISO/AVC
  10. Duration                                 : 1 h 31 min
  11. Bit rate                                 : 11.0 Mb/s
  12. Width                                    : 1 920 pixels
  13. Height                                   : 1 034 pixels
  14. Display aspect ratio                     : 1.85:1
  15. Frame rate mode                          : Constant
  16. Frame rate                               : 23.976 (24000/1001) FPS
  17. Color space                              : YUV
  18. Chroma subsampling                       : 4:2:0
  19. Bit depth                                : 8 bits
  20. Scan type                                : Progressive
  21. Bits/(Pixel*Frame)                       : 0.231
  22. Stream size                              : 7.03 GiB (77%)
  23. Writing library                          : x264 core 164 r3103 941cae6
  24. Encoding settings                        : cabac=1 / ref=4 / deblock=1:-3:-3 / analyse=0x3:0x133 / me=umh / subme=11 / psy=1 / psy_rd=1.02:0.00 / mixed_ref=1 / me_range=32 / chroma_me=1 / trellis=2 / 8x8dct=1 / cqm=0 / deadzone=21,11 / fast_pskip=0 / chroma_qp_offset=-2 / threads=32 / lookahead_threads=8 / sliced_threads=0 / nr=0 / decimate=0 / interlaced=0 / bluray_compat=0 / constrained_intra=0 / bframes=16 / b_pyramid=2 / b_adapt=2 / b_bias=0 / direct=3 / weightb=1 / open_gop=0 / weightp=2 / keyint=250 / keyint_min=23 / scenecut=40 / intra_refresh=0 / rc_lookahead=250 / rc=crf / mbtree=0 / crf=20.0 / qcomp=0.60 / qpmin=0 / qpmax=69 / qpstep=4 / vbv_maxrate=62500 / vbv_bufsize=78125 / crf_max=0.0 / nal_hrd=none / filler=0 / ip_ratio=1.30 / pb_ratio=1.20 / aq=3:0.80
  25. Default                                  : Yes
  26. Forced                                   : No
  27. Color range                              : Limited
  28. Color primaries                          : BT.709
  29. Matrix coefficients                      : BT.709
  30. Audio
  31. ID                                       : 2
  32. Format                                   : DTS XLL
  33. Format/Info                              : Digital Theater Systems
  34. Commercial name                          : DTS-HD Master Audio
  35. Codec ID                                 : A_DTS
  36. Duration                                 : 1 h 31 min
  37. Bit rate mode                            : Variable
  38. Bit rate                                 : 3 359 kb/s
  39. Channel(s)                               : 6 channels
  40. Channel layout                           : C L R Ls Rs LFE
  41. Sampling rate                            : 48.0 kHz
  42. Frame rate                               : 93.750 FPS (512 SPF)
  43. Bit depth                                : 24 bits
  44. Compression mode                         : Lossless
  45. Stream size                              : 2.15 GiB (23%)
  46. Language                                 : English
  47. Default                                  : Yes
  48. Forced                                   : No
  49. Text
  50. ID                                       : 3
  51. Format                                   : PGS
  52. Muxing mode                              : zlib
  53. Codec ID                                 : S_HDMV/PGS
  54. Codec ID/Info                            : Picture based subtitle format used on BDs/HD-DVDs
  55. Duration                                 : 1 h 29 min
  56. Bit rate                                 : 24.1 kb/s
  57. Count of elements                        : 2730
  58. Stream size                              : 15.5 MiB (0%)
  59. Language                                 : English
  60. Default                                  : No
  61. Forced                                   : No
  62. Menu
  63. 00:00:00.000                             : :Chapter 01
  64. 00:11:06.666                             : :Chapter 02
  65. 00:20:13.921                             : :Chapter 03
  66. 00:35:48.563                             : :Chapter 04
  67. 00:49:24.044                             : :Chapter 05
  68. 00:58:24.209                             : :Chapter 06
  69. 01:11:42.381                             : :Chapter 07
  70. 01:26:04.785                             : :Chapter 08
复制代码









回复

使用道具 举报

懒得打字嘛,点击右侧快捷回复 【右侧内容,后台自定义】
您需要登录后才可以回帖 登录 | 立即加入

本版积分规则

Archiver|小黑屋| 蓝光电影网 |网站地图

Copyright © 2021 Comsenz Inc. Powered by 蓝光电影网

蓝光电影网

本站内容由用户自主分享和转载自互联网,转载目的在于传递更多信息,并不代表本网赞同其观点和对其真实性负责。

如有侵权、违反国家法律政策行为,请联系我们,我们会第一时间及时清除和处理!

举报反馈邮箱:[email protected]

快速回复 返回顶部 返回列表