找回密码

蓝光电影网

查看: 307|回复: 0

[喜剧] 疯狂的性.Sex.Is.Crazy.1981.SPANISH.1080p.BluRayx264-WATCHABLE 12.59GB

[复制链接]
蓝光币
1082
发表于 2023-1-13 16:03:47 | 显示全部楼层 |阅读模式


◎标  题 疯狂的性
◎译  名 Sex Is Crazy
◎片  名 El Sexo está loco
◎年  代 1981
◎产  地 西班牙
◎类  别 笑剧
◎语  言 西班牙语
◎上映日期 1981
◎IMDb评分 4.6/10 (177人评价)
◎IMDb链接 https://www.imdb.com/title/tt0083058/
◎豆瓣链接 https://movie.douban.com/subject/2142722/
◎片  长 91 分钟
◎导  演 赫苏斯·佛朗哥 Jesús Franco
◎编  剧 赫苏斯·佛朗哥 Jesús Franco
◎演  员 莉娜·罗迈 Lina Romay
       Antonio Mayans Antonio Mayans
  1. Video
  2. ID                                       : 1
  3. Format                                   : AVC
  4. Format/Info                              : Advanced Video Codec
  5. Format profile                           : [email protected]
  6. Format settings                          : CABAC / 4 Ref Frames
  7. Format settings, CABAC                   : Yes
  8. Format settings, Reference frames        : 4 frames
  9. Codec ID                                 : V_MPEG4/ISO/AVC
  10. Duration                                 : 1 h 26 min
  11. Bit rate                                 : 20.1 Mb/s
  12. Width                                    : 1 800 pixels
  13. Height                                   : 1 080 pixels
  14. Display aspect ratio                     : 5:3
  15. Frame rate mode                          : Constant
  16. Frame rate                               : 23.976 (24000/1001) FPS
  17. Color space                              : YUV
  18. Chroma subsampling                       : 4:2:0
  19. Bit depth                                : 8 bits
  20. Scan type                                : Progressive
  21. Bits/(Pixel*Frame)                       : 0.431
  22. Stream size                              : 12.1 GiB (96%)
  23. Writing library                          : x264 core 164 r3103 941cae6
  24. Encoding settings                        : cabac=1 / ref=4 / deblock=1:-3:-3 / analyse=0x3:0x133 / me=umh / subme=9 / psy=1 / psy_rd=1.00:0.00 / mixed_ref=1 / me_range=16 / chroma_me=1 / trellis=2 / 8x8dct=1 / cqm=0 / deadzone=21,11 / fast_pskip=0 / chroma_qp_offset=-2 / threads=34 / lookahead_threads=2 / sliced_threads=0 / nr=0 / decimate=0 / interlaced=0 / bluray_compat=0 / constrained_intra=0 / bframes=3 / b_pyramid=2 / b_adapt=2 / b_bias=0 / direct=1 / weightb=1 / open_gop=0 / weightp=2 / keyint=250 / keyint_min=23 / scenecut=40 / intra_refresh=0 / rc=crf / mbtree=0 / crf=21.7 / qcomp=0.60 / qpmin=0 / qpmax=69 / qpstep=4 / ip_ratio=1.40 / pb_ratio=1.30 / aq=3:0.70
  25. Default                                  : Yes
  26. Forced                                   : No
  27. Color range                              : Limited
  28. Color primaries                          : BT.709
  29. Transfer characteristics                 : BT.709
  30. Matrix coefficients                      : BT.709
  31. Audio
  32. ID                                       : 2
  33. Format                                   : FLAC
  34. Format/Info                              : Free Lossless Audio Codec
  35. Codec ID                                 : A_FLAC
  36. Duration                                 : 1 h 26 min
  37. Bit rate mode                            : Variable
  38. Bit rate                                 : 730 kb/s
  39. Channel(s)                               : 2 channels
  40. Channel layout                           : L R
  41. Sampling rate                            : 48.0 kHz
  42. Frame rate                               : 10.417 FPS (4608 SPF)
  43. Bit depth                                : 24 bits
  44. Compression mode                         : Lossless
  45. Stream size                              : 451 MiB (4%)
  46. Title                                    : Spanish
  47. Writing library                          : Lavf59.20.101
  48. Language                                 : Spanish
  49. Default                                  : Yes
  50. Forced                                   : No
  51. MD5 of the unencoded content             : 3C0F2D8428D1D20E4E8E1840A70BA1CF
  52. Text #1
  53. ID                                       : 3
  54. Format                                   : UTF-8
  55. Codec ID                                 : S_TEXT/UTF8
  56. Codec ID/Info                            : UTF-8 Plain Text
  57. Duration                                 : 1 h 25 min
  58. Bit rate                                 : 29 b/s
  59. Frame rate                               : 0.131 FPS
  60. Count of elements                        : 670
  61. Stream size                              : 18.4 KiB (0%)
  62. Title                                    : English Full SRT
  63. Language                                 : English
  64. Default                                  : No
  65. Forced                                   : No
  66. Text #2
  67. ID                                       : 4
  68. Format                                   : PGS
  69. Muxing mode                              : zlib
  70. Codec ID                                 : S_HDMV/PGS
  71. Codec ID/Info                            : Picture based subtitle format used on BDs/HD-DVDs
  72. Duration                                 : 1 h 25 min
  73. Bit rate                                 : 18.7 kb/s
  74. Frame rate                               : 0.262 FPS
  75. Count of elements                        : 1340
  76. Stream size                              : 11.4 MiB (0%)
  77. Title                                    : English Full PGS
  78. Language                                 : English
  79. Default                                  : No
  80. Forced                                   : No
  81. Menu
  82. 00:00:00.000                             : en:Chapter 01
  83. 00:07:01.504                             : en:Chapter 02
  84. 00:15:27.718                             : en:Chapter 03
  85. 00:28:13.442                             : en:Chapter 04
  86. 00:32:28.530                             : en:Chapter 05
  87. 00:42:16.242                             : en:Chapter 06
  88. 00:46:20.236                             : en:Chapter 07
  89. 00:52:58.801                             : en:Chapter 08
  90. 01:00:12.526                             : en:Chapter 09
  91. 01:09:46.391                             : en:Chapter 10
  92. 01:15:21.016                             : en:Chapter 11
  93. 01:23:52.194                             : en:Chapter 12
复制代码











回复

使用道具 举报

懒得打字嘛,点击右侧快捷回复 【右侧内容,后台自定义】
您需要登录后才可以回帖 登录 | 立即加入

本版积分规则

Archiver|小黑屋| 蓝光电影网 |网站地图

Copyright © 2021 Comsenz Inc. Powered by 蓝光电影网

蓝光电影网

本站内容由用户自主分享和转载自互联网,转载目的在于传递更多信息,并不代表本网赞同其观点和对其真实性负责。

如有侵权、违反国家法律政策行为,请联系我们,我们会第一时间及时清除和处理!

举报反馈邮箱:[email protected]

快速回复 返回顶部 返回列表