找回密码

查看: 1413|回复: 2

[喜剧] 护吧计划.Chez.Nous.2013.DUTCH.1080p.BluRay.x264.DDP5.1-SbR 9.83GB

[复制链接]
蓝光币
1840
发表于 2023-1-13 16:03:48 | 显示全部楼层 |阅读模式


◎标  题 护吧计划
◎译  名 變裝皇后救Gay吧(台) / Queen of Amsterdam
◎片  名 Chez nous
◎年  代 2013
◎产  地 荷兰
◎类  别 笑剧 / 恋爱
◎语  言 Dutch
◎上映日期 2013-10-03
◎IMDb评分 6.5/10 (794人评价)
◎IMDb链接 https://www.imdb.com/title/tt2206082/
◎豆瓣评分 7.9/10 (240人评价)
◎豆瓣链接 https://movie.douban.com/subject/25853030/
◎片  长 98分钟
◎导  演 蒂姆·奥利霍克 Tim Oliehoek
◎编  剧 Joan Nederlof Joan Nederlof
◎演  员 阿历克斯·克拉森 Alex Klaasen
       艾哈迈德·阿卡比 Achmed Akkabi
       彼得·费伯 Peter Faber
       弗雷德克·布姆 Frederik Brom
       托马斯·阿克达 Thomas Acda
       托比斯·尼罗 Tobias Nierop
       蒂娜·布瑞音 Tina de Bruin
◎简  介
    当Chez nous(where we live)酒吧面临财政危机之时,六位普通的顾客构造了一场碟中谍行动来拯救酒吧,欢乐多多。
  1. Video
  2. ID                                       : 1
  3. Format                                   : AVC
  4. Format/Info                              : Advanced Video Codec
  5. Format profile                           : High@L4.1
  6. Format settings                          : CABAC / 4 Ref Frames
  7. Format settings, CABAC                   : Yes
  8. Format settings, Reference frames        : 4 frames
  9. Codec ID                                 : V_MPEG4/ISO/AVC
  10. Duration                                 : 1 h 41 min
  11. Bit rate                                 : 12.9 Mb/s
  12. Width                                    : 1 920 pixels
  13. Height                                   : 806 pixels
  14. Display aspect ratio                     : 2.40:1
  15. Frame rate mode                          : Constant
  16. Frame rate                               : 24.000 FPS
  17. Color space                              : YUV
  18. Chroma subsampling                       : 4:2:0
  19. Bit depth                                : 8 bits
  20. Scan type                                : Progressive
  21. Bits/(Pixel*Frame)                       : 0.346
  22. Stream size                              : 9.10 GiB (93%)
  23. Writing library                          : x264 core 164 r3100+49 ee821bd devel [(8 & 10)-bit@all X86_64]
  24. Encoding settings                        : cabac=1 / ref=4 / deblock=1:-3:-3 / analyse=0x3:0x133 / me=umh / subme=11 / psy=1 / fade_compensate=0.00 / psy_rd=1.00:0.00 / mixed_ref=1 / me_range=32 / chroma_me=1 / trellis=2 / 8x8dct=1 / cqm=0 / deadzone=21,11 / fast_pskip=1 / chroma_qp_offset=-2 / threads=32 / lookahead_threads=6 / sliced_threads=0 / nr=0 / decimate=1 / interlaced=0 / bluray_compat=0 / constrained_intra=0 / fgo=0 / bframes=10 / b_pyramid=2 / b_adapt=2 / b_bias=0 / direct=3 / weightb=1 / open_gop=0 / weightp=2 / keyint=250 / keyint_min=24 / scenecut=40 / intra_refresh=0 / rc=crf / mbtree=0 / crf=18.5000 / qcomp=0.60 / qpmin=0:0:0 / qpmax=69:69:69 / qpstep=4 / ip_ratio=1.25 / pb_ratio=1.20 / aq=3:0.80 / aq-sensitivity=10.00 / aq-factor=1.00:1.00:1.00 / aq2=0 / aq3=0
  25. Language                                 : Dutch
  26. Default                                  : Yes
  27. Forced                                   : No
  28. Audio
  29. ID                                       : 2
  30. Format                                   : E-AC-3
  31. Format/Info                              : Enhanced AC-3
  32. Commercial name                          : Dolby Digital Plus
  33. Codec ID                                 : A_EAC3
  34. Duration                                 : 1 h 41 min
  35. Bit rate mode                            : Constant
  36. Bit rate                                 : 1 024 kb/s
  37. Channel(s)                               : 6 channels
  38. Channel layout                           : L R C LFE Ls Rs
  39. Sampling rate                            : 48.0 kHz
  40. Frame rate                               : 31.250 FPS (1536 SPF)
  41. Compression mode                         : Lossy
  42. Stream size                              : 743 MiB (7%)
  43. Language                                 : Dutch
  44. Service kind                             : Complete Main
  45. Default                                  : Yes
  46. Forced                                   : No
  47. Text #1
  48. ID                                       : 3
  49. Format                                   : ASS
  50. Codec ID                                 : S_TEXT/ASS
  51. Codec ID/Info                            : Advanced Sub Station Alpha
  52. Duration                                 : 1 h 37 min
  53. Bit rate                                 : 59 b/s
  54. Frame rate                               : 0.138 FPS
  55. Count of elements                        : 810
  56. Compression mode                         : Lossless
  57. Stream size                              : 42.5 KiB (0%)
  58. Language                                 : English
  59. Default                                  : No
  60. Forced                                   : No
  61. Text #2
  62. ID                                       : 4
  63. Format                                   : UTF-8
  64. Codec ID                                 : S_TEXT/UTF8
  65. Codec ID/Info                            : UTF-8 Plain Text
  66. Duration                                 : 1 h 37 min
  67. Bit rate                                 : 35 b/s
  68. Frame rate                               : 0.138 FPS
  69. Count of elements                        : 810
  70. Stream size                              : 25.2 KiB (0%)
  71. Language                                 : English
  72. Default                                  : No
  73. Forced                                   : No
  74. Menu
  75. 00:00:00.000                             : en:Chapter 01
  76. 00:10:21.000                             : en:Chapter 02
  77. 00:20:21.000                             : en:Chapter 03
  78. 00:30:22.000                             : en:Chapter 04
  79. 00:40:21.000                             : en:Chapter 05
  80. 00:50:22.000                             : en:Chapter 06
  81. 01:00:22.000                             : en:Chapter 07
  82. 01:10:22.000                             : en:Chapter 08
  83. 01:20:22.000                             : en:Chapter 09
  84. 01:30:22.000                             : en:Chapter 10
  85. 01:38:41.000                             : en:Chapter 11
复制代码











回复

使用道具 举报

蓝光币
97
发表于 2023-1-14 10:57:34 | 显示全部楼层

感谢楼主的无私分享!要想蓝光电影网好 就靠你我他
回复

使用道具 举报

蓝光币
986
发表于 2023-1-14 12:28:28 | 显示全部楼层
楼主发贴辛苦了,谢谢楼主分享!我觉得蓝光电影网是注册对了!
回复

使用道具 举报

懒得打字嘛,点击右侧快捷回复 【右侧内容,后台自定义】
您需要登录后才可以回帖 登录 | 立即加入

本版积分规则

Copyright © 2024 Comsenz Inc. Powered by 蓝光电影网

本站内容由用户自主分享和转载自互联网,转载目的在于传递更多信息,并不代表本网赞同其观点和对其真实性负责。

如有侵权、违反国家法律政策行为,请联系我们,我们会第一时间及时清除和处理!

举报反馈邮箱:4k1080.com@gmail.com

快速回复 返回顶部 返回列表