找回密码

蓝光电影网

查看: 73|回复: 2

[喜剧] 采花贼.Sex.Thief.1973.REMASTERED.1080p.BluRay.REMUX.AVC.LPCM.2.0-FGT 25.34GB

[复制链接]
蓝光币
1082
发表于 2023-1-13 16:06:27 | 显示全部楼层 |阅读模式


◎标  题 采花贼
◎译  名 艳女杀手
◎片  名 The Sex Thief
◎年  代 1973
◎产  地 英国
◎类  别 笑剧 / Adult
◎语  言 英语
◎上映日期 1977-03-11
◎IMDb评分 4.6/10 (328人评价)
◎IMDb链接 https://www.imdb.com/title/tt0070674/
◎豆瓣评分 5.6/10 (96人评价)
◎豆瓣链接 https://movie.douban.com/subject/1851446/
◎片  长 89 分钟
◎导  演 马丁·坎贝尔 Martin Campbell
◎编  剧 迈克尔·阿姆斯特朗 Michael Armstrong
       图德·盖茨 Tudor Gates
◎演  员 Jennifer Westbrook Jennifer Westbrook
       大卫·沃贝克 David Warbeck
       Gerald Taylor Gerald Taylor
       迈克尔·阿姆斯特朗 Michael Armstrong
       Henry Rayner Henry Rayner
       Terence Edmond Terence Edmond
       戴安·吉恩 Diane Keen
       Harvey Hall Harvey Hall
       迪尔德丽·科斯特洛 Deirdre Costello
       托尼·诺布尔 Tony Noble
◎简  介
  作为英国70年月性束缚期间最出色的作品,本片围绕一个色情淫荡的蒙面采花贼展开,他勾引女民气甘情愿地跟他上床。由始至终他都被两个倒霉的差人无情地追捕却频频得以逃走,另一方面他不时地对丹麦色情女星的阴毛作出使人震动的评价。                                    
                                幕后建造                                    
                                这部电影童贞作出自Martin Campbell之手,他现在是好莱坞炙手可热的导演,前后拍摄了《黄金眼》、《蒙面佐罗》和《皇家赌场》等贸易大建造。
  1. Video
  2. ID                                       : 1
  3. ID in the original source medium         : 4113 (0x1011)
  4. Format                                   : AVC
  5. Format/Info                              : Advanced Video Codec
  6. Format profile                           : [email protected]
  7. Format settings                          : CABAC / 4 Ref Frames
  8. Format settings, CABAC                   : Yes
  9. Format settings, Reference frames        : 4 frames
  10. Codec ID                                 : V_MPEG4/ISO/AVC
  11. Duration                                 : 1 h 33 min
  12. Bit rate mode                            : Constant
  13. Bit rate                                 : 35.0 Mb/s
  14. Width                                    : 1 920 pixels
  15. Height                                   : 1 080 pixels
  16. Display aspect ratio                     : 16:9
  17. Frame rate mode                          : Constant
  18. Frame rate                               : 23.976 (24000/1001) FPS
  19. Standard                                 : Component
  20. Color space                              : YUV
  21. Chroma subsampling                       : 4:2:0
  22. Bit depth                                : 8 bits
  23. Scan type                                : Progressive
  24. Bits/(Pixel*Frame)                       : 0.704
  25. Stream size                              : 22.3 GiB (88%)
  26. Writing library                          : x264 core 155
  27. Encoding settings                        : cabac=1 / ref=4 / deblock=1:0:0 / analyse=0x3:0x133 / me=umh / subme=9 / psy=1 / psy_rd=1.00:0.00 / mixed_ref=1 / me_range=24 / chroma_me=1 / trellis=2 / 8x8dct=1 / cqm=1 / deadzone=21,11 / fast_pskip=1 / chroma_qp_offset=-2 / threads=34 / lookahead_threads=2 / sliced_threads=0 / slices=4 / nr=0 / decimate=1 / interlaced=0 / minigop=1 / stitchable=1 / constrained_intra=0 / bframes=2 / b_pyramid=0 / b_adapt=2 / b_bias=0 / direct=3 / weightb=1 / open_gop=1 / weightp=1 / keyint=24 / keyint_min=1 / scenecut=40 / intra_refresh=0 / rc_lookahead=24 / rc=cbr / mbtree=1 / bitrate=35000 / ratetol=1.0 / qcomp=0.60 / qpmin=3 / qpmax=69 / qpstep=4 / vbv_maxrate=35000 / vbv_bufsize=30000 / nal_hrd=cbr / filler=1 / ip_ratio=1.40 / aq=1:1.00
  28. Language                                 : English
  29. Default                                  : No
  30. Forced                                   : No
  31. Color range                              : Limited
  32. Color primaries                          : BT.709
  33. Transfer characteristics                 : BT.709
  34. Matrix coefficients                      : BT.709
  35. Original source medium                   : Blu-ray
  36. Audio #1
  37. ID                                       : 2
  38. ID in the original source medium         : 4352 (0x1100)
  39. Format                                   : PCM
  40. Format settings                          : Little / Signed
  41. Codec ID                                 : A_PCM/INT/LIT
  42. Duration                                 : 1 h 33 min
  43. Bit rate mode                            : Constant
  44. Bit rate                                 : 2 304 kb/s
  45. Channel(s)                               : 2 channels
  46. Sampling rate                            : 48.0 kHz
  47. Frame rate                               : 30.000 FPS (1600 SPF)
  48. Bit depth                                : 24 bits
  49. Stream size                              : 1.50 GiB (6%)
  50. Title                                    : LPCM 2.0
  51. Language                                 : English
  52. Default                                  : Yes
  53. Forced                                   : No
  54. Original source medium                   : Blu-ray
  55. Audio #2
  56. ID                                       : 3
  57. ID in the original source medium         : 4353 (0x1101)
  58. Format                                   : PCM
  59. Format settings                          : Little / Signed
  60. Codec ID                                 : A_PCM/INT/LIT
  61. Duration                                 : 1 h 33 min
  62. Bit rate mode                            : Constant
  63. Bit rate                                 : 2 304 kb/s
  64. Channel(s)                               : 2 channels
  65. Sampling rate                            : 48.0 kHz
  66. Frame rate                               : 30.000 FPS (1600 SPF)
  67. Bit depth                                : 24 bits
  68. Stream size                              : 1.50 GiB (6%)
  69. Title                                    : LPCM 2.0
  70. Language                                 : English
  71. Default                                  : No
  72. Forced                                   : No
  73. Original source medium                   : Blu-ray
  74. Text #1
  75. ID                                       : 4
  76. Format                                   : UTF-8
  77. Codec ID                                 : S_TEXT/UTF8
  78. Codec ID/Info                            : UTF-8 Plain Text
  79. Duration                                 : 1 h 29 min
  80. Bit rate                                 : 61 b/s
  81. Frame rate                               : 0.207 FPS
  82. Count of elements                        : 1104
  83. Stream size                              : 40.0 KiB (0%)
  84. Language                                 : English
  85. Default                                  : Yes
  86. Forced                                   : No
  87. Text #2
  88. ID                                       : 5
  89. Format                                   : UTF-8
  90. Codec ID                                 : S_TEXT/UTF8
  91. Codec ID/Info                            : UTF-8 Plain Text
  92. Duration                                 : 1 h 31 min
  93. Bit rate                                 : 68 b/s
  94. Frame rate                               : 0.269 FPS
  95. Count of elements                        : 1485
  96. Stream size                              : 46.1 KiB (0%)
  97. Title                                    : SDH
  98. Language                                 : English
  99. Default                                  : No
  100. Forced                                   : No
  101. Text #3
  102. ID                                       : 6
  103. ID in the original source medium         : 4608 (0x1200)
  104. Format                                   : PGS
  105. Muxing mode                              : zlib
  106. Codec ID                                 : S_HDMV/PGS
  107. Codec ID/Info                            : Picture based subtitle format used on BDs/HD-DVDs
  108. Duration                                 : 1 h 31 min
  109. Bit rate                                 : 48.4 kb/s
  110. Frame rate                               : 0.502 FPS
  111. Count of elements                        : 2771
  112. Stream size                              : 31.8 MiB (0%)
  113. Language                                 : English
  114. Default                                  : No
  115. Forced                                   : No
  116. Original source medium                   : Blu-ray
  117. Menu
  118. 00:00:00.000                             : en:Chapter 01
  119. 00:11:18.844                             : en:Chapter 02
  120. 00:29:16.713                             : en:Chapter 03
  121. 00:39:47.802                             : en:Chapter 04
  122. 00:51:41.973                             : en:Chapter 05
  123. 00:59:35.905                             : en:Chapter 06
  124. 01:08:20.763                             : en:Chapter 07
  125. 01:16:27.082                             : en:Chapter 08
  126. 01:22:53.385                             : en:Chapter 09
  127. 01:31:53.841                             : en:Chapter 10
复制代码











回复

使用道具 举报

蓝光币
383
发表于 2023-1-13 20:05:13 | 显示全部楼层
楼主发贴辛苦了,谢谢楼主分享!我觉得蓝光电影网是注册对了!
回复 支持 反对

使用道具 举报

蓝光币
334
发表于 2023-1-14 00:20:05 | 显示全部楼层

论坛不能没有像楼主这样的人才啊!我会一直支持蓝光电影网。
回复 支持 反对

使用道具 举报

懒得打字嘛,点击右侧快捷回复 【右侧内容,后台自定义】
您需要登录后才可以回帖 登录 | 立即加入

本版积分规则

Archiver|小黑屋| 蓝光电影网 |网站地图

Copyright © 2021 Comsenz Inc. Powered by 蓝光电影网

蓝光电影网

本站内容由用户自主分享和转载自互联网,转载目的在于传递更多信息,并不代表本网赞同其观点和对其真实性负责。

如有侵权、违反国家法律政策行为,请联系我们,我们会第一时间及时清除和处理!

举报反馈邮箱:[email protected]

快速回复 返回顶部 返回列表