找回密码

蓝光电影网

查看: 99|回复: 0

[REMUX.HEVC] 死亡占卜.Ouija.2014.2160p.BluRay.REMUX.HEVC.DTS-HD.MA.5.1-FGT 57.07GB

[复制链接]
蓝光币
1084
发表于 2023-1-13 16:08:14 | 显示全部楼层 |阅读模式


◎标  题 灭亡占卜
◎译  名 灭亡占卜(港) / 美版通灵 / 通灵
◎片  名 Ouija
◎年  代 2014
◎产  地 美国
◎类  别 行动 / 惊悚 / 可骇 / 冒险
◎语  言 英语
◎上映日期 2014-10-24(美国)
◎IMDb评分 4.5/10 (51127人评价)
◎IMDb链接 https://www.imdb.com/title/tt1204977/
◎豆瓣评分 5.5/10 (5016人评价)
◎豆瓣链接 https://movie.douban.com/subject/3014399/
◎片  长 89分钟
◎导  演 斯蒂尔斯·怀特 Stiles White
◎编  剧 亚当·霍罗威茨 Adam Horowitz
       爱德华·基齐斯 Edward Kitsis
◎演  员 奥利维亚·库克 Olivia Cooke
       安娜·科托 Ana Coto
       达伦·卡加索夫 Daren Kagasoff
       比安卡·A·桑托斯 Bianca A. Santos
       道格拉斯·史姑娘 Douglas Smith
       雪莱·亨尼格 Shelley Hennig
       桑尼·梅·艾利森 Sunny May Allison
       林·沙烨 Lin Shaye
       克劳迪娅·卡茨 Claudia Katz
       罗宾·莱弗里 Robyn Lively
       马修·塞特尔 Matthew Settle
       维维斯·科隆贝蒂 Vivis Colombetti
       丹尼斯·奎德 Dennis Quaid
       克劳迪娅·卡茨 Claudia Katz
       Alex Williams Alex Williams
       塞拉·希乌尔曼 Sierra Heuermann
       海伦·亨特 Helen Hunt
◎标  签 可骇 / 美国 / 惊悚 / 灵异 / 悬疑 / 笔仙 / 青春 / 可骇电影
◎简  介
    莱妮(奥利维亚·库克 Olivia Cooke 饰)和黛比(雪莱·亨尼格 Shelley Hennig 饰)是一对从小玩到大的好朋友,谁知在某个毫无征象的夜晚,黛比忽然上吊自杀,这起变故给了莱妮极为沉痛的冲击。她决然不相信好友会挑选如此残暴的方式分开,在多方调盘询问无果后,莱妮召集了妹妹萨拉(安娜·科托 Ana Coto 饰)以及伊莎贝尔(比安卡·A·桑托斯 Bianca A. Santos 饰)、特里弗(达伦·卡加索夫 Daren Kagasoff 饰)、皮特(道格拉斯·史姑娘 Douglas Smith 饰)等好友,用她和黛比小时辰最常玩的通灵板,试图呼唤黛比问清死因。                                                                      阴晦的房间里,他们的询问获得回应,而可骇的噩梦似乎就此起头……
  1. Video
  2. ID                                       : 1
  3. ID in the original source medium         : 4113 (0x1011)
  4. Format                                   : HEVC
  5. Format/Info                              : High Efficiency Video Coding
  6. Format profile                           : Main [email protected]@High
  7. HDR format                               : Dolby Vision, Version 1.0, dvhe.07.06, BL+EL+RPU, Blu-ray compatible / SMPTE ST 2086, HDR10 compatible
  8. Codec ID                                 : V_MPEGH/ISO/HEVC
  9. Duration                                 : 1 h 29 min
  10. Bit rate                                 : 85.0 Mb/s
  11. Width                                    : 3 840 pixels
  12. Height                                   : 2 160 pixels
  13. Display aspect ratio                     : 16:9
  14. Frame rate mode                          : Constant
  15. Frame rate                               : 23.976 (24000/1001) FPS
  16. Color space                              : YUV
  17. Chroma subsampling                       : 4:2:0 (Type 2)
  18. Bit depth                                : 10 bits
  19. Bits/(Pixel*Frame)                       : 0.428
  20. Stream size                              : 53.1 GiB (93%)
  21. Language                                 : English
  22. Default                                  : No
  23. Forced                                   : No
  24. Color range                              : Limited
  25. Color primaries                          : BT.2020
  26. Transfer characteristics                 : PQ
  27. Matrix coefficients                      : BT.2020 non-constant
  28. Mastering display color primaries        : Display P3
  29. Mastering display luminance              : min: 0.0050 cd/m2, max: 4000 cd/m2
  30. Maximum Content Light Level              : 723 cd/m2
  31. Maximum Frame-Average Light Level        : 65 cd/m2
  32. Original source medium                   : Blu-ray
  33. Audio #1
  34. ID                                       : 2
  35. ID in the original source medium         : 4352 (0x1100)
  36. Format                                   : DTS XLL
  37. Format/Info                              : Digital Theater Systems
  38. Commercial name                          : DTS-HD Master Audio
  39. Codec ID                                 : A_DTS
  40. Duration                                 : 1 h 29 min
  41. Bit rate mode                            : Variable
  42. Bit rate                                 : 3 586 kb/s
  43. Channel(s)                               : 6 channels
  44. Channel layout                           : C L R Ls Rs LFE
  45. Sampling rate                            : 48.0 kHz
  46. Frame rate                               : 93.750 FPS (512 SPF)
  47. Bit depth                                : 24 bits
  48. Compression mode                         : Lossless
  49. Stream size                              : 2.24 GiB (4%)
  50. Title                                    : DTS-HD MA 5.1
  51. Language                                 : English
  52. Default                                  : Yes
  53. Forced                                   : No
  54. Original source medium                   : Blu-ray
  55. Audio #2
  56. ID                                       : 3
  57. Format                                   : AC-3
  58. Format/Info                              : Audio Coding 3
  59. Commercial name                          : Dolby Digital
  60. Codec ID                                 : A_AC3
  61. Duration                                 : 1 h 29 min
  62. Bit rate mode                            : Constant
  63. Bit rate                                 : 640 kb/s
  64. Channel(s)                               : 6 channels
  65. Channel layout                           : L R C LFE Ls Rs
  66. Sampling rate                            : 48.0 kHz
  67. Frame rate                               : 31.250 FPS (1536 SPF)
  68. Compression mode                         : Lossy
  69. Stream size                              : 409 MiB (1%)
  70. Title                                    : DD 5.1
  71. Language                                 : English
  72. Service kind                             : Complete Main
  73. Default                                  : No
  74. Forced                                   : No
  75. Audio #3
  76. ID                                       : 4
  77. ID in the original source medium         : 4353 (0x1101)
  78. Format                                   : DTS XLL
  79. Format/Info                              : Digital Theater Systems
  80. Commercial name                          : DTS-HD Master Audio
  81. Codec ID                                 : A_DTS
  82. Duration                                 : 1 h 29 min
  83. Bit rate mode                            : Variable
  84. Bit rate                                 : 1 709 kb/s
  85. Channel(s)                               : 2 channels
  86. Channel layout                           : L R
  87. Sampling rate                            : 48.0 kHz
  88. Frame rate                               : 93.750 FPS (512 SPF)
  89. Bit depth                                : 24 bits
  90. Compression mode                         : Lossless
  91. Stream size                              : 1.07 GiB (2%)
  92. Title                                    : DTS-HD MA 2.0
  93. Language                                 : English
  94. Default                                  : No
  95. Forced                                   : No
  96. Original source medium                   : Blu-ray
  97. Audio #4
  98. ID                                       : 5
  99. ID in the original source medium         : 4354 (0x1102)
  100. Format                                   : AC-3
  101. Format/Info                              : Audio Coding 3
  102. Commercial name                          : Dolby Digital
  103. Codec ID                                 : A_AC3
  104. Duration                                 : 1 h 29 min
  105. Bit rate mode                            : Constant
  106. Bit rate                                 : 192 kb/s
  107. Channel(s)                               : 2 channels
  108. Channel layout                           : L R
  109. Sampling rate                            : 48.0 kHz
  110. Frame rate                               : 31.250 FPS (1536 SPF)
  111. Compression mode                         : Lossy
  112. Stream size                              : 123 MiB (0%)
  113. Title                                    : DD 2.0
  114. Language                                 : English
  115. Service kind                             : Complete Main
  116. Default                                  : No
  117. Forced                                   : No
  118. Original source medium                   : Blu-ray
  119. Audio #5
  120. ID                                       : 6
  121. ID in the original source medium         : 4355 (0x1103)
  122. Format                                   : AC-3
  123. Format/Info                              : Audio Coding 3
  124. Commercial name                          : Dolby Digital
  125. Codec ID                                 : A_AC3
  126. Duration                                 : 1 h 29 min
  127. Bit rate mode                            : Constant
  128. Bit rate                                 : 192 kb/s
  129. Channel(s)                               : 2 channels
  130. Channel layout                           : L R
  131. Sampling rate                            : 48.0 kHz
  132. Frame rate                               : 31.250 FPS (1536 SPF)
  133. Compression mode                         : Lossy
  134. Stream size                              : 123 MiB (0%)
  135. Title                                    : DD 2.0
  136. Language                                 : English
  137. Service kind                             : Complete Main
  138. Default                                  : No
  139. Forced                                   : No
  140. Original source medium                   : Blu-ray
  141. Text #1
  142. ID                                       : 7
  143. Format                                   : UTF-8
  144. Codec ID                                 : S_TEXT/UTF8
  145. Codec ID/Info                            : UTF-8 Plain Text
  146. Duration                                 : 1 h 20 min
  147. Bit rate                                 : 38 b/s
  148. Frame rate                               : 0.152 FPS
  149. Count of elements                        : 739
  150. Stream size                              : 22.7 KiB (0%)
  151. Language                                 : English
  152. Default                                  : Yes
  153. Forced                                   : No
  154. Text #2
  155. ID                                       : 8
  156. Format                                   : UTF-8
  157. Codec ID                                 : S_TEXT/UTF8
  158. Codec ID/Info                            : UTF-8 Plain Text
  159. Duration                                 : 1 h 28 min
  160. Bit rate                                 : 47 b/s
  161. Frame rate                               : 0.205 FPS
  162. Count of elements                        : 1095
  163. Stream size                              : 30.7 KiB (0%)
  164. Title                                    : SDH
  165. Language                                 : English
  166. Default                                  : No
  167. Forced                                   : No
  168. Text #3
  169. ID                                       : 9
  170. ID in the original source medium         : 4768 (0x12A0)
  171. Format                                   : PGS
  172. Muxing mode                              : zlib
  173. Codec ID                                 : S_HDMV/PGS
  174. Codec ID/Info                            : Picture based subtitle format used on BDs/HD-DVDs
  175. Duration                                 : 1 h 28 min
  176. Bit rate                                 : 29.6 kb/s
  177. Frame rate                               : 0.413 FPS
  178. Count of elements                        : 2204
  179. Stream size                              : 18.8 MiB (0%)
  180. Language                                 : English
  181. Default                                  : No
  182. Forced                                   : No
  183. Original source medium                   : Blu-ray
  184. Menu
  185. 00:00:00.000                             : en:Chapter 01
  186. 00:09:31.821                             : en:Chapter 02
  187. 00:16:28.028                             : en:Chapter 03
  188. 00:24:14.786                             : en:Chapter 04
  189. 00:32:12.055                             : en:Chapter 05
  190. 00:40:04.944                             : en:Chapter 06
  191. 00:49:29.591                             : en:Chapter 07
  192. 00:55:53.767                             : en:Chapter 08
  193. 01:02:25.450                             : en:Chapter 09
  194. 01:10:03.782                             : en:Chapter 10
  195. 01:15:25.270                             : en:Chapter 11
  196. 01:22:05.837                             : en:Chapter 12
  197. 01:29:23.316                             : en:Chapter 13
复制代码











回复

使用道具 举报

懒得打字嘛,点击右侧快捷回复 【右侧内容,后台自定义】
您需要登录后才可以回帖 登录 | 立即加入

本版积分规则

Archiver|小黑屋| 蓝光电影网 |网站地图

Copyright © 2021 Comsenz Inc. Powered by 蓝光电影网

蓝光电影网

本站内容由用户自主分享和转载自互联网,转载目的在于传递更多信息,并不代表本网赞同其观点和对其真实性负责。

如有侵权、违反国家法律政策行为,请联系我们,我们会第一时间及时清除和处理!

举报反馈邮箱:[email protected]

快速回复 返回顶部 返回列表