找回密码

蓝光电影网

查看: 2383|回复: 4

黑暗荣耀[内封简繁英多国软字幕].The.Glory.S01.Part.1.KOREAN.2160p.NF.WEB-DL.x265.10bit.HDR.DDP5.1.Atmos-XEBEC 48.37GB

[复制链接]
蓝光币
1704
发表于 2023-1-13 21:35:57 | 显示全部楼层 |阅读模式
黑暗光荣[内封简繁英多国软字幕].The.Glory.S01.Part.1.KOREAN.2160p.NF.WEB-DL.x265.10bit.HDR.DDP5.1.Atmos-XEBEC 48.37GB-1.jpg

◎译  名 黑暗光荣 / 光荣 / The Glory
◎片  名 더 글로리
◎年  代 2022
◎产  地 韩国
◎类  别 剧情
◎语  言 韩语
◎上映日期 2022-12-30(韩国)
◎豆瓣评星 ★★★★✦
◎豆瓣评分 9.0/10 from 1,404,723,427 users
◎豆瓣链接 https://movie.douban.com/subject/35314632/
◎单集片长 50分钟
◎集  数 8
◎导  演 安吉镐 / Ahn Gil-ho
◎演  员 宋慧乔 / Hye-kyo Song | 饰 文东恩
      李到晛 / Do-hyun Lee | 饰 周汝正
      林智妍 / Ji-Yeon Lim | 饰 朴妍珍
      郑成日 / Jeong Seong-il | 饰 河流英
      廉惠兰 / Yum Hye-ran | 饰 姜贤南
      朴成焄 / Sung-hoon Park | 饰 全在俊
      金赫拉 / Kim Hieora | 饰 李莎拉
      车珠英 / Joo-young Cha | 饰 崔惠廷
      金健宇 / Gun-woo Kim | 饰 孙明悟
      郑知晓 / Ji-So Jeong | 饰 文东恩少年
      宋炳根 / Song Byeong Geun | 饰 全在俊少年
      裴康熙 / Ganghee Bae | 饰 李莎拉少年
      辛睿恩 / Ye-eun Shin | 饰 朴妍珍少年
      宋智友 / Ji-Woo Song | 饰 崔惠廷少年
      徐佑赫 /  Seo Woo Hyeok | 饰 孙明悟少年
      吴智律 / Oh Ji Yul | 饰 河艺率
      朴智娥 / Ji-a Park | 饰 郑美熙
      尹多景 / Da-kyung Yoon | 饰 朴妍珍母亲
      吴敏爱 / Min-ae Oh | 饰 河度领母亲
      金善华 / Sun-hwa Kim | 饰 李莎拉母亲
      孙淑子 / Son Sook | 饰 房东
      许锦 | 饰 具成熙
      宋奈映 / Song Na Yeong | 饰 具成熙成年
      李抒映 | 饰 金景兰
      安清闲 / So-yo Ahn | 饰 金景兰少年
      李昭隶 / Lee So-e | 饰 尹素禧
      崔秀仁 / Soo-In Choi | 饰 李善雅
      柳圣贤 / Ryoo Seong-hyeon | 饰 李锡宰
        | 饰 李善雅
        | 饰 李锡宰
      金昇华 / Seung Hwa Kim | 饰 空姐
◎编  剧 金银淑 / Eun-sook Kim

◎简  介 

  胡想成为一位修建师的文东恩(宋慧乔 饰),高中期间因蒙受校园暴力而不能不退学,随后等到加害胁从成婚,其孩子升入小学以后。她担任阿谁孩子的班主任,并起头向加害者和旁观者停止完全而惨痛的报复的故事。
  1. Video
  2. ID : 1
  3. Format : HEVC
  4. Format/Info : High Efficiency Video Coding
  5. Format profile : Main 10@L5@Main
  6. HDR format : SMPTE ST 2086, HDR10 compatible
  7. Codec ID : V_MPEGH/ISO/HEVC
  8. Duration : 52 min 32 s
  9. Bit rate : 17.9 Mb/s
  10. Width : 3 840 pixels
  11. Height : 2 160 pixels
  12. Display aspect ratio : 16:9
  13. Frame rate mode : Constant
  14. Frame rate : 23.976 (24000/1001) FPS
  15. Color space : YUV
  16. Chroma subsampling : 4:2:0 (Type 2)
  17. Bit depth : 10 bits
  18. Bits/(Pixel*Frame) : 0.090
  19. Stream size : 6.56 GiB (96%)
  20. Default : Yes
  21. Forced : No
  22. Color range : Limited
  23. Color primaries : BT.2020
  24. Transfer characteristics : PQ
  25. Matrix coefficients : BT.2020 non-constant
  26. Mastering display color primaries : Display P3
  27. Mastering display luminance : min: 0.0001 cd/m2, max: 1000 cd/m2
  28. Maximum Content Light Level : 1026 cd/m2
  29. Maximum Frame-Average Light Level : 139 cd/m2

  30. Audio
  31. ID : 2
  32. Format : E-AC-3 JOC
  33. Format/Info : Enhanced AC-3 with Joint Object Coding
  34. Commercial name : Dolby Digital Plus with Dolby Atmos
  35. Codec ID : A_EAC3
  36. Duration : 54 min 34 s
  37. Bit rate mode : Constant
  38. Bit rate : 768 kb/s
  39. Channel(s) : 6 channels
  40. Channel layout : L R C LFE Ls Rs
  41. Sampling rate : 48.0 kHz
  42. Frame rate : 31.250 FPS (1536 SPF)
  43. Compression mode : Lossy
  44. Stream size : 300 MiB (4%)
  45. Title : Korean
  46. Language : Korean
  47. Service kind : Complete Main
  48. Default : Yes
  49. Forced : No
  50. Complexity index : 16
  51. Number of dynamic objects : 15
  52. Bed channel count : 1 channel
  53. Bed channel configuration : LFE

  54. Text #1
  55. ID : 3
  56. Format : UTF-8
  57. Codec ID : S_TEXT/UTF8
  58. Codec ID/Info : UTF-8 Plain Text
  59. Duration : 51 min 24 s
  60. Bit rate : 88 b/s
  61. Frame rate : 0.201 FPS
  62. Count of elements : 621
  63. Stream size : 33.3 KiB (0%)
  64. Title : Arabic
  65. Language : Arabic
  66. Default : No
  67. Forced : No

  68. Text #2
  69. ID : 4
  70. Format : UTF-8
  71. Codec ID : S_TEXT/UTF8
  72. Codec ID/Info : UTF-8 Plain Text
  73. Duration : 49 min 26 s
  74. Bit rate : 46 b/s
  75. Frame rate : 0.210 FPS
  76. Count of elements : 622
  77. Stream size : 16.7 KiB (0%)
  78. Title : Czech
  79. Language : Czech
  80. Default : No
  81. Forced : No

  82. Text #3
  83. ID : 5
  84. Format : UTF-8
  85. Codec ID : S_TEXT/UTF8
  86. Codec ID/Info : UTF-8 Plain Text
  87. Duration : 51 min 16 s
  88. Bit rate : 47 b/s
  89. Frame rate : 0.189 FPS
  90. Count of elements : 580
  91. Stream size : 17.7 KiB (0%)
  92. Title : Danish
  93. Language : Danish
  94. Default : No
  95. Forced : No

  96. Text #4
  97. ID : 6
  98. Format : UTF-8
  99. Codec ID : S_TEXT/UTF8
  100. Codec ID/Info : UTF-8 Plain Text
  101. Duration : 51 min 16 s
  102. Bit rate : 47 b/s
  103. Frame rate : 0.186 FPS
  104. Count of elements : 571
  105. Stream size : 17.8 KiB (0%)
  106. Title : German
  107. Language : German
  108. Default : No
  109. Forced : No

  110. Text #5
  111. ID : 7
  112. Format : UTF-8
  113. Codec ID : S_TEXT/UTF8
  114. Codec ID/Info : UTF-8 Plain Text
  115. Duration : 51 min 21 s
  116. Bit rate : 79 b/s
  117. Frame rate : 0.199 FPS
  118. Count of elements : 612
  119. Stream size : 29.9 KiB (0%)
  120. Title : Modern Greek (1453-)
  121. Language : Greek
  122. Default : No
  123. Forced : No

  124. Text #6
  125. ID : 8
  126. Format : UTF-8
  127. Codec ID : S_TEXT/UTF8
  128. Codec ID/Info : UTF-8 Plain Text
  129. Duration : 47 min 55 s
  130. Bit rate : 58 b/s
  131. Frame rate : 0.214 FPS
  132. Count of elements : 615
  133. Stream size : 20.6 KiB (0%)
  134. Title : English
  135. Language : English
  136. Default : No
  137. Forced : No

  138. Text #7
  139. ID : 9
  140. Format : UTF-8
  141. Codec ID : S_TEXT/UTF8
  142. Codec ID/Info : UTF-8 Plain Text
  143. Duration : 47 min 53 s
  144. Bit rate : 56 b/s
  145. Frame rate : 0.214 FPS
  146. Count of elements : 614
  147. Stream size : 19.9 KiB (0%)
  148. Title : English
  149. Language : English
  150. Default : No
  151. Forced : No

  152. Text #8
  153. ID : 10
  154. Format : UTF-8
  155. Codec ID : S_TEXT/UTF8
  156. Codec ID/Info : UTF-8 Plain Text
  157. Duration : 50 min 15 s
  158. Bit rate : 62 b/s
  159. Frame rate : 0.240 FPS
  160. Count of elements : 724
  161. Stream size : 23.1 KiB (0%)
  162. Title : English (SDH)
  163. Language : English
  164. Default : No
  165. Forced : No

  166. Text #9
  167. ID : 11
  168. Format : UTF-8
  169. Codec ID : S_TEXT/UTF8
  170. Codec ID/Info : UTF-8 Plain Text
  171. Duration : 48 min 2 s
  172. Bit rate : 50 b/s
  173. Frame rate : 0.209 FPS
  174. Count of elements : 602
  175. Stream size : 17.6 KiB (0%)
  176. Title : Spanish
  177. Language : Spanish
  178. Default : No
  179. Forced : No

  180. Text #10
  181. ID : 12
  182. Format : UTF-8
  183. Codec ID : S_TEXT/UTF8
  184. Codec ID/Info : UTF-8 Plain Text
  185. Duration : 51 min 24 s
  186. Bit rate : 46 b/s
  187. Frame rate : 0.194 FPS
  188. Count of elements : 599
  189. Stream size : 17.6 KiB (0%)
  190. Title : Spanish
  191. Language : Spanish
  192. Default : No
  193. Forced : No

  194. Text #11
  195. ID : 13
  196. Format : UTF-8
  197. Codec ID : S_TEXT/UTF8
  198. Codec ID/Info : UTF-8 Plain Text
  199. Duration : 51 min 16 s
  200. Bit rate : 45 b/s
  201. Frame rate : 0.187 FPS
  202. Count of elements : 574
  203. Stream size : 17.2 KiB (0%)
  204. Title : Finnish
  205. Language : Finnish
  206. Default : No
  207. Forced : No

  208. Text #12
  209. ID : 14
  210. Format : UTF-8
  211. Codec ID : S_TEXT/UTF8
  212. Codec ID/Info : UTF-8 Plain Text
  213. Duration : 51 min 16 s
  214. Bit rate : 49 b/s
  215. Frame rate : 0.198 FPS
  216. Count of elements : 609
  217. Stream size : 18.6 KiB (0%)
  218. Title : Filipino
  219. Language : fil
  220. Default : No
  221. Forced : No

  222. Text #13
  223. ID : 15
  224. Format : UTF-8
  225. Codec ID : S_TEXT/UTF8
  226. Codec ID/Info : UTF-8 Plain Text
  227. Duration : 51 min 16 s
  228. Bit rate : 45 b/s
  229. Frame rate : 0.196 FPS
  230. Count of elements : 604
  231. Stream size : 16.9 KiB (0%)
  232. Title : French
  233. Language : French
  234. Default : No
  235. Forced : No

  236. Text #14
  237. ID : 16
  238. Format : UTF-8
  239. Codec ID : S_TEXT/UTF8
  240. Codec ID/Info : UTF-8 Plain Text
  241. Duration : 51 min 24 s
  242. Bit rate : 80 b/s
  243. Frame rate : 0.201 FPS
  244. Count of elements : 621
  245. Stream size : 30.5 KiB (0%)
  246. Title : Hebrew
  247. Language : Hebrew
  248. Default : No
  249. Forced : No

  250. Text #15
  251. ID : 17
  252. Format : UTF-8
  253. Codec ID : S_TEXT/UTF8
  254. Codec ID/Info : UTF-8 Plain Text
  255. Duration : 51 min 24 s
  256. Bit rate : 42 b/s
  257. Frame rate : 0.195 FPS
  258. Count of elements : 602
  259. Stream size : 15.9 KiB (0%)
  260. Title : Croatian
  261. Language : Croatian
  262. Default : No
  263. Forced : No

  264. Text #16
  265. ID : 18
  266. Format : UTF-8
  267. Codec ID : S_TEXT/UTF8
  268. Codec ID/Info : UTF-8 Plain Text
  269. Duration : 51 min 24 s
  270. Bit rate : 46 b/s
  271. Frame rate : 0.192 FPS
  272. Count of elements : 592
  273. Stream size : 17.4 KiB (0%)
  274. Title : Hungarian
  275. Language : Hungarian
  276. Default : No
  277. Forced : No

  278. Text #17
  279. ID : 19
  280. Format : UTF-8
  281. Codec ID : S_TEXT/UTF8
  282. Codec ID/Info : UTF-8 Plain Text
  283. Duration : 51 min 16 s
  284. Bit rate : 46 b/s
  285. Frame rate : 0.201 FPS
  286. Count of elements : 619
  287. Stream size : 17.6 KiB (0%)
  288. Title : Indonesian
  289. Language : Indonesian
  290. Default : No
  291. Forced : No

  292. Text #18
  293. ID : 20
  294. Format : UTF-8
  295. Codec ID : S_TEXT/UTF8
  296. Codec ID/Info : UTF-8 Plain Text
  297. Duration : 51 min 16 s
  298. Bit rate : 43 b/s
  299. Frame rate : 0.195 FPS
  300. Count of elements : 599
  301. Stream size : 16.3 KiB (0%)
  302. Title : Italian
  303. Language : Italian
  304. Default : No
  305. Forced : No

  306. Text #19
  307. ID : 21
  308. Format : UTF-8
  309. Codec ID : S_TEXT/UTF8
  310. Codec ID/Info : UTF-8 Plain Text
  311. Duration : 51 min 24 s
  312. Bit rate : 47 b/s
  313. Frame rate : 0.198 FPS
  314. Count of elements : 610
  315. Stream size : 17.8 KiB (0%)
  316. Title : Japanese
  317. Language : Japanese
  318. Default : No
  319. Forced : No

  320. Text #20
  321. ID : 22
  322. Format : UTF-8
  323. Codec ID : S_TEXT/UTF8
  324. Codec ID/Info : UTF-8 Plain Text
  325. Duration : 50 min 15 s
  326. Bit rate : 83 b/s
  327. Frame rate : 0.297 FPS
  328. Count of elements : 895
  329. Stream size : 30.9 KiB (0%)
  330. Title : Korean (SDH)
  331. Language : Korean
  332. Default : No
  333. Forced : No

  334. Text #21
  335. ID : 23
  336. Format : UTF-8
  337. Codec ID : S_TEXT/UTF8
  338. Codec ID/Info : UTF-8 Plain Text
  339. Duration : 48 min 3 s
  340. Bit rate : 46 b/s
  341. Frame rate : 0.216 FPS
  342. Count of elements : 624
  343. Stream size : 16.4 KiB (0%)
  344. Title : Malay (macrolanguage)
  345. Language : Malay
  346. Default : No
  347. Forced : No

  348. Text #22
  349. ID : 24
  350. Format : UTF-8
  351. Codec ID : S_TEXT/UTF8
  352. Codec ID/Info : UTF-8 Plain Text
  353. Duration : 51 min 24 s
  354. Bit rate : 46 b/s
  355. Frame rate : 0.189 FPS
  356. Count of elements : 582
  357. Stream size : 17.6 KiB (0%)
  358. Title : Norwegian Bokmål
  359. Language : Norwegian Bokmal
  360. Default : No
  361. Forced : No

  362. Text #23
  363. ID : 25
  364. Format : UTF-8
  365. Codec ID : S_TEXT/UTF8
  366. Codec ID/Info : UTF-8 Plain Text
  367. Duration : 51 min 13 s
  368. Bit rate : 47 b/s
  369. Frame rate : 0.179 FPS
  370. Count of elements : 550
  371. Stream size : 17.9 KiB (0%)
  372. Title : Dutch
  373. Language : Dutch
  374. Default : No
  375. Forced : No

  376. Text #24
  377. ID : 26
  378. Format : UTF-8
  379. Codec ID : S_TEXT/UTF8
  380. Codec ID/Info : UTF-8 Plain Text
  381. Duration : 51 min 24 s
  382. Bit rate : 46 b/s
  383. Frame rate : 0.189 FPS
  384. Count of elements : 582
  385. Stream size : 17.6 KiB (0%)
  386. Title : Polish
  387. Language : Polish
  388. Default : No
  389. Forced : No

  390. Text #25
  391. ID : 27
  392. Format : UTF-8
  393. Codec ID : S_TEXT/UTF8
  394. Codec ID/Info : UTF-8 Plain Text
  395. Duration : 51 min 24 s
  396. Bit rate : 47 b/s
  397. Frame rate : 0.199 FPS
  398. Count of elements : 613
  399. Stream size : 17.7 KiB (0%)
  400. Title : Portuguese
  401. Language : Portuguese
  402. Default : No
  403. Forced : No

  404. Text #26
  405. ID : 28
  406. Format : UTF-8
  407. Codec ID : S_TEXT/UTF8
  408. Codec ID/Info : UTF-8 Plain Text
  409. Duration : 51 min 24 s
  410. Bit rate : 50 b/s
  411. Frame rate : 0.191 FPS
  412. Count of elements : 590
  413. Stream size : 19.0 KiB (0%)
  414. Title : Portuguese
  415. Language : Portuguese
  416. Default : No
  417. Forced : No

  418. Text #27
  419. ID : 29
  420. Format : UTF-8
  421. Codec ID : S_TEXT/UTF8
  422. Codec ID/Info : UTF-8 Plain Text
  423. Duration : 48 min 0 s
  424. Bit rate : 54 b/s
  425. Frame rate : 0.203 FPS
  426. Count of elements : 586
  427. Stream size : 19.1 KiB (0%)
  428. Title : Romanian
  429. Language : Romanian
  430. Default : No
  431. Forced : No

  432. Text #28
  433. ID : 30
  434. Format : UTF-8
  435. Codec ID : S_TEXT/UTF8
  436. Codec ID/Info : UTF-8 Plain Text
  437. Duration : 51 min 24 s
  438. Bit rate : 76 b/s
  439. Frame rate : 0.200 FPS
  440. Count of elements : 616
  441. Stream size : 28.8 KiB (0%)
  442. Title : Russian
  443. Language : Russian
  444. Default : No
  445. Forced : No

  446. Text #29
  447. ID : 31
  448. Format : UTF-8
  449. Codec ID : S_TEXT/UTF8
  450. Codec ID/Info : UTF-8 Plain Text
  451. Duration : 51 min 16 s
  452. Bit rate : 46 b/s
  453. Frame rate : 0.165 FPS
  454. Count of elements : 507
  455. Stream size : 17.4 KiB (0%)
  456. Title : Swedish
  457. Language : Swedish
  458. Default : No
  459. Forced : No

  460. Text #30
  461. ID : 32
  462. Format : UTF-8
  463. Codec ID : S_TEXT/UTF8
  464. Codec ID/Info : UTF-8 Plain Text
  465. Duration : 51 min 24 s
  466. Bit rate : 131 b/s
  467. Frame rate : 0.203 FPS
  468. Count of elements : 627
  469. Stream size : 49.7 KiB (0%)
  470. Title : Thai
  471. Language : Thai
  472. Default : No
  473. Forced : No

  474. Text #31
  475. ID : 33
  476. Format : UTF-8
  477. Codec ID : S_TEXT/UTF8
  478. Codec ID/Info : UTF-8 Plain Text
  479. Duration : 51 min 16 s
  480. Bit rate : 47 b/s
  481. Frame rate : 0.190 FPS
  482. Count of elements : 585
  483. Stream size : 17.7 KiB (0%)
  484. Title : Turkish
  485. Language : Turkish
  486. Default : No
  487. Forced : No

  488. Text #32
  489. ID : 34
  490. Format : UTF-8
  491. Codec ID : S_TEXT/UTF8
  492. Codec ID/Info : UTF-8 Plain Text
  493. Duration : 51 min 24 s
  494. Bit rate : 77 b/s
  495. Frame rate : 0.198 FPS
  496. Count of elements : 612
  497. Stream size : 29.2 KiB (0%)
  498. Title : Ukrainian
  499. Language : Ukrainian
  500. Default : No
  501. Forced : No

  502. Text #33
  503. ID : 35
  504. Format : UTF-8
  505. Codec ID : S_TEXT/UTF8
  506. Codec ID/Info : UTF-8 Plain Text
  507. Duration : 51 min 24 s
  508. Bit rate : 71 b/s
  509. Frame rate : 0.178 FPS
  510. Count of elements : 550
  511. Stream size : 26.8 KiB (0%)
  512. Title : Vietnamese
  513. Language : Vietnamese
  514. Default : No
  515. Forced : No

  516. Text #34
  517. ID : 36
  518. Format : UTF-8
  519. Codec ID : S_TEXT/UTF8
  520. Codec ID/Info : UTF-8 Plain Text
  521. Duration : 51 min 22 s
  522. Bit rate : 52 b/s
  523. Frame rate : 0.221 FPS
  524. Count of elements : 680
  525. Stream size : 19.7 KiB (0%)
  526. Title : Simplified, Chinese
  527. Language : Chinese
  528. Default : No
  529. Forced : No

  530. Text #35
  531. ID : 37
  532. Format : UTF-8
  533. Codec ID : S_TEXT/UTF8
  534. Codec ID/Info : UTF-8 Plain Text
  535. Duration : 51 min 23 s
  536. Bit rate : 53 b/s
  537. Frame rate : 0.233 FPS
  538. Count of elements : 720
  539. Stream size : 20.3 KiB (0%)
  540. Title : Traditional, Chinese
  541. Language : Chinese
  542. Default : No
  543. Forced : No

  544. Menu
  545. 00:00:00.000 : en:Part 01
  546. 00:00:04.500 : en:Intro
  547. 00:01:04.250 : en:Part 02
  548. 00:50:30.450 : en:Credits
复制代码
黑暗光荣[内封简繁英多国软字幕].The.Glory.S01.Part.1.KOREAN.2160p.NF.WEB-DL.x265.10bit.HDR.DDP5.1.Atmos-XEBEC 48.37GB-2.png
黑暗光荣[内封简繁英多国软字幕].The.Glory.S01.Part.1.KOREAN.2160p.NF.WEB-DL.x265.10bit.HDR.DDP5.1.Atmos-XEBEC 48.37GB-3.png
黑暗光荣[内封简繁英多国软字幕].The.Glory.S01.Part.1.KOREAN.2160p.NF.WEB-DL.x265.10bit.HDR.DDP5.1.Atmos-XEBEC 48.37GB-4.png













回复

使用道具 举报

蓝光币
340
发表于 2023-1-23 11:05:25 | 显示全部楼层
这个是高清5.1声道的片源
回复 支持 反对

使用道具 举报

蓝光币
0
发表于 2023-3-10 10:44:55 | 显示全部楼层
想看 想看
回复

使用道具 举报

蓝光币
2
发表于 2023-3-10 22:21:13 | 显示全部楼层
坐等第二季
回复 支持 反对

使用道具 举报

蓝光币
51
发表于 2023-3-11 11:13:16 | 显示全部楼层
不能下载?
回复

使用道具 举报

懒得打字嘛,点击右侧快捷回复 【右侧内容,后台自定义】
您需要登录后才可以回帖 登录 | 立即加入

本版积分规则

Archiver|小黑屋| 蓝光电影网 |网站地图

Copyright © 2021 Comsenz Inc. Powered by 蓝光电影网

蓝光电影网

本站内容由用户自主分享和转载自互联网,转载目的在于传递更多信息,并不代表本网赞同其观点和对其真实性负责。

如有侵权、违反国家法律政策行为,请联系我们,我们会第一时间及时清除和处理!

举报反馈邮箱:4k1080.com@gmail.com

快速回复 返回顶部 返回列表