找回密码

蓝光电影网

查看: 67|回复: 0

[2160p] 断魂小丑2.Terrifier.2.2022.2160p.UHD.BluRay.x265.10bit.HDR.DTS-HD.MA.5.1-RARBG 11.44GB

[复制链接]
蓝光币
1084
发表于 2023-1-14 14:02:50 | 显示全部楼层 |阅读模式


◎标  题 销魂小丑2
◎译  名 刽乐小丑2
◎片  名 Terrifier 2
◎年  代 2022
◎产  地 美国
◎类  别 可骇
◎语  言 英语
◎上映日期 2022-08-29(英国) / 2022-10-06(美国)
◎IMDb评分 6.2/10 (25750人评价)
◎IMDb链接 https://www.imdb.com/title/tt10403420/
◎豆瓣评分 5.8/10 (9218人评价)
◎豆瓣链接 https://movie.douban.com/subject/34816877/
◎片  长 138分钟
◎导  演 达米安·利昂 Damien Leone
◎编  剧 达米安·利昂 Damien Leone
◎演  员 劳伦·拉维拉 Lauren LaVera
       戴维·霍华德·桑顿 David Howard Thornton
       艾米莉·麦克莱恩 Amelie McLain
       凯莉·海曼 Kailey Hyman
       凯西·哈特内特 Casey Hartnett
       萨拉·沃伊特 Sarah Voigt
       埃利奥特·富勒姆 Elliott Fullam
       杰基·阿德拉格纳 Jackie Adragna
       凯蒂·马奎尔 Katie Maguire
       费莉莎·罗斯 Felissa Rose
       格里芬·桑托彼得罗 Griffin Santopietro
       塔玛拉·格林 Tamara Glynn
       克里斯·杰里科 Chris Jericho
       乔治亚·麦克菲尔 Georgia MacPhail
       莎拉·格蕾丝·桑德斯 Sarah Grace Sanders
       艾米·露斯 Amy Russ
        Marcus Slabine
       Cory DuVal Cory DuVal
       欧文·迈尔 Owen Myre
       萨曼莎·斯卡菲迪 Samantha Scaffidi
       珍娜·凯内尔 Jenna Kanell
       凯瑟琳·科科兰 Catherine Corcoran
       Devon Roth Devon Roth
       乔纳斯·戴维斯 Johnath Davis
◎简  介
    一股邪恶的气力叫醒杀人小丑亚特。在万圣夜,杀人小丑亚特回到迈尔斯镇,他的目标是抓拿一位少女和她的弟弟,并在万圣夜当晚将他们两人杀戮。小丑亚特杀人不见血,受害人数不竭增加,姊弟两报酬保存而奋战的同时也尽力探查杀人小丑亚特背后的动机。
  1. Video
  2. ID                                       : 1
  3. Format                                   : HEVC
  4. Format/Info                              : High Efficiency Video Coding
  5. Format profile                           : Main [email protected]@Main
  6. Codec ID                                 : V_MPEGH/ISO/HEVC
  7. Duration                                 : 2 h 18 min
  8. Bit rate                                 : 8 027 kb/s
  9. Width                                    : 3 840 pixels
  10. Height                                   : 2 160 pixels
  11. Display aspect ratio                     : 16:9
  12. Frame rate mode                          : Constant
  13. Frame rate                               : 23.976 (24000/1001) FPS
  14. Color space                              : YUV
  15. Chroma subsampling                       : 4:2:0
  16. Bit depth                                : 10 bits
  17. Bits/(Pixel*Frame)                       : 0.040
  18. Stream size                              : 7.75 GiB (68%)
  19. Writing library                          : x265 3.5+rarbg-HDR-38-20255e6:[Linux][clang 16.0.0][64 bit] 10bit
  20. Encoding settings                        : cpuid=1111039 / frame-threads=6 / wpp / no-pmode / no-pme / no-psnr / no-ssim / log-level=2 / input-csp=1 / input-res=3840x2160 / interlace=0 / total-frames=0 / level-idc=51 / high-tier=1 / uhd-bd=0 / ref=4 / no-allow-non-conformance / repeat-headers / annexb / aud / no-eob / no-eos / no-hrd / info / hash=0 / no-temporal-layers / no-open-gop / min-keyint=1 / keyint=24 / gop-lookahead=0 / bframes=4 / b-adapt=2 / b-pyramid / bframe-bias=0 / rc-lookahead=25 / lookahead-slices=4 / scenecut=40 / no-hist-scenecut / radl=0 / no-splice / no-intra-refresh / ctu=64 / min-cu-size=8 / rect / no-amp / max-tu-size=32 / tu-inter-depth=1 / tu-intra-depth=1 / limit-tu=0 / rdoq-level=2 / dynamic-rd=0.00 / no-ssim-rd / signhide / no-tskip / nr-intra=0 / nr-inter=0 / no-constrained-intra / strong-intra-smoothing / max-merge=3 / limit-refs=3 / no-limit-modes / me=3 / subme=3 / merange=57 / temporal-mvp / no-frame-dup / no-hme / weightp / no-weightb / no-analyze-src-pics / deblock=0:0 / no-sao / no-sao-non-deblock / rd=4 / selective-sao=0 / no-early-skip / rskip / no-fast-intra / no-tskip-fast / no-cu-lossless / no-b-intra / no-splitrd-skip / rdpenalty=0 / psy-rd=2.00 / psy-rdoq=1.00 / no-rd-refine / no-lossless / cbqpoffs=0 / crqpoffs=0 / rc=abr / bitrate=8000 / qcomp=0.60 / qpstep=4 / stats-write=0 / stats-read=2 / cplxblur=20.0 / qblur=0.5 / ipratio=1.40 / pbratio=1.30 / aq-mode=1 / aq-strength=1.00 / cutree / zone-count=0 / no-strict-cbr / qg-size=32 / no-rc-grain / qpmax=69 / qpmin=0 / no-const-vbv / sar=1 / overscan=0 / videoformat=5 / range=0 / colorprim=9 / transfer=16 / colormatrix=9 / chromaloc=0 / display-window=0 / cll=0,0 / min-luma=0 / max-luma=1023 / log2-max-poc-lsb=8 / vui-timing-info / vui-hrd-info / slices=1 / no-opt-qp-pps / no-opt-ref-list-length-pps / no-multi-pass-opt-rps / scenecut-bias=0.05 / hist-threshold=0.03 / no-opt-cu-delta-qp / no-aq-motion / hdr10 / hdr10-opt / no-dhdr10-opt / no-idr-recovery-sei / analysis-reuse-level=0 / analysis-save-reuse-level=0 / analysis-load-reuse-level=0 / scale-factor=0 / refine-intra=0 / refine-inter=0 / refine-mv=1 / refine-ctu-distortion=0 / no-limit-sao / ctu-info=0 / no-lowpass-dct / refine-analysis-type=0 / copy-pic=1 / max-ausize-factor=1.0 / no-dynamic-refine / no-single-sei / no-hevc-aq / no-svt / no-field / qp-adaptation-range=1.00 / scenecut-aware-qp=0conformance-window-offsets / right=0 / bottom=0 / decoder-max-rate=0 / no-vbv-live-multi-pass
  21. Default                                  : Yes
  22. Forced                                   : No
  23. Color range                              : Limited
  24. Color primaries                          : BT.2020
  25. Transfer characteristics                 : PQ
  26. Matrix coefficients                      : BT.2020 non-constant
  27. Audio #1
  28. ID                                       : 2
  29. Format                                   : DTS XLL
  30. Format/Info                              : Digital Theater Systems
  31. Commercial name                          : DTS-HD Master Audio
  32. Codec ID                                 : A_DTS
  33. Duration                                 : 2 h 18 min
  34. Bit rate mode                            : Variable
  35. Bit rate                                 : 3 441 kb/s
  36. Channel(s)                               : 6 channels
  37. Channel layout                           : C L R Ls Rs LFE
  38. Sampling rate                            : 48.0 kHz
  39. Frame rate                               : 93.750 FPS (512 SPF)
  40. Bit depth                                : 24 bits
  41. Compression mode                         : Lossless
  42. Stream size                              : 3.32 GiB (29%)
  43. Title                                    : English DTS-HD MA 5.1
  44. Language                                 : English
  45. Default                                  : Yes
  46. Forced                                   : No
  47. Audio #2
  48. ID                                       : 3
  49. Format                                   : AC-3
  50. Format/Info                              : Audio Coding 3
  51. Commercial name                          : Dolby Digital
  52. Codec ID                                 : A_AC3
  53. Duration                                 : 2 h 18 min
  54. Bit rate mode                            : Constant
  55. Bit rate                                 : 384 kb/s
  56. Channel(s)                               : 6 channels
  57. Channel layout                           : L R C LFE Ls Rs
  58. Sampling rate                            : 48.0 kHz
  59. Frame rate                               : 31.250 FPS (1536 SPF)
  60. Compression mode                         : Lossy
  61. Stream size                              : 379 MiB (3%)
  62. Title                                    : English DD 5.1
  63. Language                                 : English
  64. Service kind                             : Complete Main
  65. Default                                  : No
  66. Forced                                   : No
  67. Text #1
  68. ID                                       : 4
  69. Format                                   : UTF-8
  70. Codec ID                                 : S_TEXT/UTF8
  71. Codec ID/Info                            : UTF-8 Plain Text
  72. Duration                                 : 2 h 16 min
  73. Bit rate                                 : 35 b/s
  74. Frame rate                               : 0.157 FPS
  75. Count of elements                        : 1285
  76. Stream size                              : 35.5 KiB (0%)
  77. Title                                    : English SRT
  78. Language                                 : English
  79. Default                                  : Yes
  80. Forced                                   : No
  81. Text #2
  82. ID                                       : 5
  83. Format                                   : UTF-8
  84. Codec ID                                 : S_TEXT/UTF8
  85. Codec ID/Info                            : UTF-8 Plain Text
  86. Duration                                 : 2 h 16 min
  87. Bit rate                                 : 44 b/s
  88. Frame rate                               : 0.215 FPS
  89. Count of elements                        : 1758
  90. Stream size                              : 44.5 KiB (0%)
  91. Title                                    : English SDH SRT
  92. Language                                 : English
  93. Default                                  : No
  94. Forced                                   : No
  95. Menu
  96. 00:00:00.000                             : en:Chapter 01
  97. 00:07:53.389                             : en:Chapter 02
  98. 00:18:05.501                             : en:Chapter 03
  99. 00:29:27.390                             : en:Chapter 04
  100. 00:40:38.185                             : en:Chapter 05
  101. 00:55:16.563                             : en:Chapter 06
  102. 01:06:17.640                             : en:Chapter 07
  103. 01:17:29.853                             : en:Chapter 08
  104. 01:28:18.668                             : en:Chapter 09
  105. 01:36:17.646                             : en:Chapter 10
  106. 01:46:32.594                             : en:Chapter 11
  107. 02:01:55.766                             : en:Chapter 12
  108. 02:11:19.288                             : en:Chapter 13
  109. 02:15:40.298                             : en:Chapter 14
复制代码











回复

使用道具 举报

懒得打字嘛,点击右侧快捷回复 【右侧内容,后台自定义】
您需要登录后才可以回帖 登录 | 立即加入

本版积分规则

Archiver|小黑屋| 蓝光电影网 |网站地图

Copyright © 2021 Comsenz Inc. Powered by 蓝光电影网

蓝光电影网

本站内容由用户自主分享和转载自互联网,转载目的在于传递更多信息,并不代表本网赞同其观点和对其真实性负责。

如有侵权、违反国家法律政策行为,请联系我们,我们会第一时间及时清除和处理!

举报反馈邮箱:[email protected]

快速回复 返回顶部 返回列表