找回密码

蓝光电影网

查看: 57|回复: 0

[2160p] 无限.Infinite.2021.2160p.UHD.BluRay.x265.10bit.HDR.DDP5.1.Atmos-RARBG 6.53GB

[复制链接]
蓝光币
1084
发表于 2023-1-14 14:02:50 | 显示全部楼层 |阅读模式


◎标  题 无穷
◎译  名 无穷循环
◎片  名 Infinite
◎年  代 2021
◎产  地 美国
◎类  别 行动 / 科幻 / 惊悚
◎语  言 英语
◎上映日期 2021-06-10(美国收集)
◎IMDb评分 5.4/10 (52090人评价)
◎IMDb链接 https://www.imdb.com/title/tt6654210/
◎豆瓣评分 5.4/10 (13556人评价)
◎豆瓣链接 https://movie.douban.com/subject/30368448/
◎片  长 106分钟
◎导  演 安东尼·福奎阿 Antoine Fuqua
◎编  剧 伊恩·肖尔 Ian Shorr
       托德·斯坦因 Todd Stein
       D· 埃里克·麦克兰兹 D. Eric Maikranz
◎演  员 马克·沃尔伯格 Mark Wahlberg
       迪伦·奥布莱恩 Dylan O'Brien
       杰森·曼楚克斯 Jason Mantzoukas
       鲁伯特·弗兰德 Rupert Friend
       索菲·库克森 Sophie Cookson
       切瓦特·埃加福 Chiwetel Ejiofor
       托比·琼斯 Toby Jones
       沃利斯·戴 Wallis Day
       汤姆·休斯 Tom Hughes
       约翰内斯·豪克尔·约翰内森 Jóhannes Haukur Jóhannesson
       加绘·亚历山大 Kae Alexander
       利兹·凯尔 Liz Carr
       乔安娜·里贝罗 Joana Ribeiro
       纳比勒·埃卢比 Nabil Elouahabi
       拉菲拉·查普曼 Raffiella Chapman
       马克·弗莱施曼 Mark Fleischmann
       乔丹·A·纳什 Jordan A. Nash
       蒂利亚纳·布克丽瓦 Dilyana Bouklieva
       利昂·阿诺 Leon Annor
◎简  介
    改编自D. Eric Maikranz所著小说《转世文献》(The Rein carnationist Papers),聚焦一个被自己前两世的记忆缠绕的男人,引出一群几近永生不死、几世纪来屡次转生的人,被称为“无穷/无穷之人”,他们的构造叫“Cognomina”。为了打败想扑灭地球的邪恶气力,他们必须依靠这个精神割裂的男人,尔后者先要搞清楚:他常做的希奇的梦都是宿世的记忆。
  1. Video
  2. ID                                       : 1
  3. Format                                   : HEVC
  4. Format/Info                              : High Efficiency Video Coding
  5. Format profile                           : Main [email protected]@Main
  6. HDR format                               : SMPTE ST 2086, HDR10 compatible
  7. Codec ID                                 : V_MPEGH/ISO/HEVC
  8. Duration                                 : 1 h 46 min
  9. Bit rate                                 : 8 023 kb/s
  10. Width                                    : 3 840 pixels
  11. Height                                   : 1 608 pixels
  12. Display aspect ratio                     : 2.40:1
  13. Frame rate mode                          : Constant
  14. Frame rate                               : 23.976 (24000/1001) FPS
  15. Color space                              : YUV
  16. Chroma subsampling                       : 4:2:0
  17. Bit depth                                : 10 bits
  18. Bits/(Pixel*Frame)                       : 0.054
  19. Stream size                              : 5.96 GiB (91%)
  20. Writing library                          : x265 3.5+rarbg-HDR-38-20255e6:[Linux][clang 16.0.0][64 bit] 10bit
  21. Encoding settings                        : cpuid=1111039 / frame-threads=6 / wpp / no-pmode / no-pme / no-psnr / no-ssim / log-level=2 / input-csp=1 / input-res=3840x1608 / interlace=0 / total-frames=0 / level-idc=51 / high-tier=1 / uhd-bd=0 / ref=4 / no-allow-non-conformance / repeat-headers / annexb / aud / no-eob / no-eos / no-hrd / info / hash=0 / no-temporal-layers / no-open-gop / min-keyint=1 / keyint=24 / gop-lookahead=0 / bframes=4 / b-adapt=2 / b-pyramid / bframe-bias=0 / rc-lookahead=25 / lookahead-slices=4 / scenecut=40 / no-hist-scenecut / radl=0 / no-splice / no-intra-refresh / ctu=64 / min-cu-size=8 / rect / no-amp / max-tu-size=32 / tu-inter-depth=1 / tu-intra-depth=1 / limit-tu=0 / rdoq-level=2 / dynamic-rd=0.00 / no-ssim-rd / signhide / no-tskip / nr-intra=0 / nr-inter=0 / no-constrained-intra / strong-intra-smoothing / max-merge=3 / limit-refs=3 / no-limit-modes / me=3 / subme=3 / merange=57 / temporal-mvp / no-frame-dup / no-hme / weightp / no-weightb / no-analyze-src-pics / deblock=0:0 / no-sao / no-sao-non-deblock / rd=4 / selective-sao=0 / no-early-skip / rskip / no-fast-intra / no-tskip-fast / no-cu-lossless / no-b-intra / no-splitrd-skip / rdpenalty=0 / psy-rd=2.00 / psy-rdoq=1.00 / no-rd-refine / no-lossless / cbqpoffs=0 / crqpoffs=0 / rc=abr / bitrate=8000 / qcomp=0.60 / qpstep=4 / stats-write=0 / stats-read=2 / cplxblur=20.0 / qblur=0.5 / ipratio=1.40 / pbratio=1.30 / aq-mode=1 / aq-strength=1.00 / cutree / zone-count=0 / no-strict-cbr / qg-size=32 / no-rc-grain / qpmax=69 / qpmin=0 / no-const-vbv / sar=1 / overscan=0 / videoformat=5 / range=0 / colorprim=9 / transfer=16 / colormatrix=9 / chromaloc=0 / display-window=0 / master-display=G(13250,34500)B(7500,3000)R(34000,16000)WP(15635,16450)L(10000000,1) / cll=1000,512 / min-luma=0 / max-luma=1023 / log2-max-poc-lsb=8 / vui-timing-info / vui-hrd-info / slices=1 / no-opt-qp-pps / no-opt-ref-list-length-pps / no-multi-pass-opt-rps / scenecut-bias=0.05 / hist-threshold=0.03 / no-opt-cu-delta-qp / no-aq-motion / hdr10 / hdr10-opt / no-dhdr10-opt / no-idr-recovery-sei / analysis-reuse-level=0 / analysis-save-reuse-level=0 / analysis-load-reuse-level=0 / scale-factor=0 / refine-intra=0 / refine-inter=0 / refine-mv=1 / refine-ctu-distortion=0 / no-limit-sao / ctu-info=0 / no-lowpass-dct / refine-analysis-type=0 / copy-pic=1 / max-ausize-factor=1.0 / no-dynamic-refine / no-single-sei / no-hevc-aq / no-svt / no-field / qp-adaptation-range=1.00 / scenecut-aware-qp=0conformance-window-offsets / right=0 / bottom=0 / decoder-max-rate=0 / no-vbv-live-multi-pass
  22. Default                                  : Yes
  23. Forced                                   : No
  24. Color range                              : Limited
  25. Color primaries                          : BT.2020
  26. Transfer characteristics                 : PQ
  27. Matrix coefficients                      : BT.2020 non-constant
  28. Mastering display color primaries        : Display P3
  29. Mastering display luminance              : min: 0.0001 cd/m2, max: 1000 cd/m2
  30. Maximum Content Light Level              : 1000 cd/m2
  31. Maximum Frame-Average Light Level        : 512 cd/m2
  32. Audio
  33. ID                                       : 2
  34. Format                                   : E-AC-3 JOC
  35. Format/Info                              : Enhanced AC-3 with Joint Object Coding
  36. Commercial name                          : Dolby Digital Plus with Dolby Atmos
  37. Codec ID                                 : A_EAC3
  38. Duration                                 : 1 h 46 min
  39. Bit rate mode                            : Constant
  40. Bit rate                                 : 768 kb/s
  41. Channel(s)                               : 6 channels
  42. Channel layout                           : L R C LFE Ls Rs
  43. Sampling rate                            : 48.0 kHz
  44. Frame rate                               : 31.250 FPS (1536 SPF)
  45. Compression mode                         : Lossy
  46. Stream size                              : 584 MiB (9%)
  47. Title                                    : English DDP Atmos 5.1
  48. Language                                 : English
  49. Service kind                             : Complete Main
  50. Default                                  : Yes
  51. Forced                                   : No
  52. Complexity index                         : 16
  53. Number of dynamic objects                : 15
  54. Bed channel count                        : 1 channel
  55. Bed channel configuration                : LFE
  56. Text #1
  57. ID                                       : 3
  58. Format                                   : UTF-8
  59. Codec ID                                 : S_TEXT/UTF8
  60. Codec ID/Info                            : UTF-8 Plain Text
  61. Duration                                 : 1 h 37 min
  62. Bit rate                                 : 42 b/s
  63. Frame rate                               : 0.166 FPS
  64. Count of elements                        : 972
  65. Stream size                              : 30.6 KiB (0%)
  66. Title                                    : English SRT
  67. Language                                 : English
  68. Default                                  : Yes
  69. Forced                                   : No
  70. Text #2
  71. ID                                       : 4
  72. Format                                   : UTF-8
  73. Codec ID                                 : S_TEXT/UTF8
  74. Codec ID/Info                            : UTF-8 Plain Text
  75. Duration                                 : 1 h 41 min
  76. Bit rate                                 : 46 b/s
  77. Frame rate                               : 0.188 FPS
  78. Count of elements                        : 1144
  79. Stream size                              : 34.7 KiB (0%)
  80. Title                                    : English SDH SRT
  81. Language                                 : English
  82. Default                                  : No
  83. Forced                                   : No
  84. Menu
  85. 00:00:00.000                             : en:Chapter 01
  86. 00:07:49.010                             : en:Chapter 02
  87. 00:12:44.722                             : en:Chapter 03
  88. 00:18:58.554                             : en:Chapter 04
  89. 00:25:51.424                             : en:Chapter 05
  90. 00:32:25.401                             : en:Chapter 06
  91. 00:38:24.760                             : en:Chapter 07
  92. 00:46:41.006                             : en:Chapter 08
  93. 00:54:22.592                             : en:Chapter 09
  94. 01:02:58.983                             : en:Chapter 10
  95. 01:11:00.631                             : en:Chapter 11
  96. 01:19:41.234                             : en:Chapter 12
  97. 01:28:27.135                             : en:Chapter 13
  98. 01:37:44.567                             : en:Chapter 14
复制代码











回复

使用道具 举报

懒得打字嘛,点击右侧快捷回复 【右侧内容,后台自定义】
您需要登录后才可以回帖 登录 | 立即加入

本版积分规则

Archiver|小黑屋| 蓝光电影网 |网站地图

Copyright © 2021 Comsenz Inc. Powered by 蓝光电影网

蓝光电影网

本站内容由用户自主分享和转载自互联网,转载目的在于传递更多信息,并不代表本网赞同其观点和对其真实性负责。

如有侵权、违反国家法律政策行为,请联系我们,我们会第一时间及时清除和处理!

举报反馈邮箱:[email protected]

快速回复 返回顶部 返回列表