找回密码

蓝光电影网

查看: 31|回复: 0

[2160p] 死亡占卜.Ouija.2014.2160p.BluRay.x264.8bit.SDR.DTS-HD.MA.5.1-SWTYBLZ 28.07GB

[复制链接]
蓝光币
1082
发表于 2023-1-14 14:02:52 | 显示全部楼层 |阅读模式


◎标  题 灭亡占卜
◎译  名 灭亡占卜(港) / 美版通灵 / 通灵
◎片  名 Ouija
◎年  代 2014
◎产  地 美国
◎类  别 行动 / 惊悚 / 可骇 / 冒险
◎语  言 英语
◎上映日期 2014-10-24(美国)
◎IMDb评分 4.5/10 (51127人评价)
◎IMDb链接 https://www.imdb.com/title/tt1204977/
◎豆瓣评分 5.5/10 (5016人评价)
◎豆瓣链接 https://movie.douban.com/subject/3014399/
◎片  长 89分钟
◎导  演 斯蒂尔斯·怀特 Stiles White
◎编  剧 亚当·霍罗威茨 Adam Horowitz
       爱德华·基齐斯 Edward Kitsis
◎演  员 奥利维亚·库克 Olivia Cooke
       安娜·科托 Ana Coto
       达伦·卡加索夫 Daren Kagasoff
       比安卡·A·桑托斯 Bianca A. Santos
       道格拉斯·史姑娘 Douglas Smith
       雪莱·亨尼格 Shelley Hennig
       桑尼·梅·艾利森 Sunny May Allison
       林·沙烨 Lin Shaye
       克劳迪娅·卡茨 Claudia Katz
       罗宾·莱弗里 Robyn Lively
       马修·塞特尔 Matthew Settle
       维维斯·科隆贝蒂 Vivis Colombetti
       丹尼斯·奎德 Dennis Quaid
       克劳迪娅·卡茨 Claudia Katz
       Alex Williams Alex Williams
       塞拉·希乌尔曼 Sierra Heuermann
       海伦·亨特 Helen Hunt
◎标  签 可骇 / 美国 / 惊悚 / 灵异 / 悬疑 / 笔仙 / 青春 / 可骇电影
◎简  介
    莱妮(奥利维亚·库克 Olivia Cooke 饰)和黛比(雪莱·亨尼格 Shelley Hennig 饰)是一对从小玩到大的好朋友,谁知在某个毫无征象的夜晚,黛比忽然上吊自杀,这起变故给了莱妮极为沉痛的冲击。她决然不相信好友会挑选如此残暴的方式分开,在多方调盘询问无果后,莱妮召集了妹妹萨拉(安娜·科托 Ana Coto 饰)以及伊莎贝尔(比安卡·A·桑托斯 Bianca A. Santos 饰)、特里弗(达伦·卡加索夫 Daren Kagasoff 饰)、皮特(道格拉斯·史姑娘 Douglas Smith 饰)等好友,用她和黛比小时辰最常玩的通灵板,试图呼唤黛比问清死因。                                                                      阴晦的房间里,他们的询问获得回应,而可骇的噩梦似乎就此起头……
  1. Video
  2. ID                                       : 1
  3. Format                                   : AVC
  4. Format/Info                              : Advanced Video Codec
  5. Format profile                           : [email protected]
  6. Format settings                          : CABAC / 5 Ref Frames
  7. Format settings, CABAC                   : Yes
  8. Format settings, Reference frames        : 5 frames
  9. Codec ID                                 : V_MPEG4/ISO/AVC
  10. Duration                                 : 1 h 29 min
  11. Bit rate                                 : 40.3 Mb/s
  12. Width                                    : 3 840 pixels
  13. Height                                   : 1 600 pixels
  14. Display aspect ratio                     : 2.40:1
  15. Frame rate mode                          : Constant
  16. Frame rate                               : 23.976 (24000/1001) FPS
  17. Color space                              : YUV
  18. Chroma subsampling                       : 4:2:0
  19. Bit depth                                : 8 bits
  20. Scan type                                : Progressive
  21. Bits/(Pixel*Frame)                       : 0.274
  22. Stream size                              : 25.2 GiB (90%)
  23. Writing library                          : x264 core 157 r2935 545de2f
  24. Encoding settings                        : cabac=1 / ref=5 / deblock=1:-1:-1 / analyse=0x3:0x113 / me=umh / subme=10 / psy=1 / psy_rd=1.00:0.15 / mixed_ref=1 / me_range=48 / chroma_me=1 / trellis=2 / 8x8dct=1 / cqm=0 / deadzone=21,11 / fast_pskip=1 / chroma_qp_offset=-3 / threads=48 / lookahead_threads=4 / sliced_threads=0 / nr=0 / decimate=0 / interlaced=0 / bluray_compat=0 / constrained_intra=0 / bframes=3 / b_pyramid=2 / b_adapt=2 / b_bias=0 / direct=3 / weightb=1 / open_gop=0 / weightp=2 / keyint=250 / keyint_min=23 / scenecut=40 / intra_refresh=0 / rc_lookahead=50 / rc=crf / mbtree=1 / crf=18.0 / qcomp=0.60 / qpmin=0 / qpmax=69 / qpstep=4 / ip_ratio=1.40 / aq=1:1.00
  25. Default                                  : Yes
  26. Forced                                   : No
  27. Audio #1
  28. ID                                       : 2
  29. ID in the original source medium         : 4352 (0x1100)
  30. Format                                   : DTS XLL
  31. Format/Info                              : Digital Theater Systems
  32. Commercial name                          : DTS-HD Master Audio
  33. Codec ID                                 : A_DTS
  34. Duration                                 : 1 h 29 min
  35. Bit rate mode                            : Variable
  36. Bit rate                                 : 3 586 kb/s
  37. Channel(s)                               : 6 channels
  38. Channel layout                           : C L R Ls Rs LFE
  39. Sampling rate                            : 48.0 kHz
  40. Frame rate                               : 93.750 FPS (512 SPF)
  41. Bit depth                                : 24 bits
  42. Compression mode                         : Lossless
  43. Stream size                              : 2.24 GiB (8%)
  44. Title                                    : DTS-HD MA 5.1
  45. Language                                 : English
  46. Default                                  : Yes
  47. Forced                                   : No
  48. Original source medium                   : Blu-ray
  49. Audio #2
  50. ID                                       : 3
  51. Format                                   : AC-3
  52. Format/Info                              : Audio Coding 3
  53. Commercial name                          : Dolby Digital
  54. Codec ID                                 : A_AC3
  55. Duration                                 : 1 h 29 min
  56. Bit rate mode                            : Constant
  57. Bit rate                                 : 640 kb/s
  58. Channel(s)                               : 6 channels
  59. Channel layout                           : L R C LFE Ls Rs
  60. Sampling rate                            : 48.0 kHz
  61. Frame rate                               : 31.250 FPS (1536 SPF)
  62. Compression mode                         : Lossy
  63. Stream size                              : 409 MiB (1%)
  64. Title                                    : DD 5.1
  65. Language                                 : English
  66. Service kind                             : Complete Main
  67. Default                                  : No
  68. Forced                                   : No
  69. Text #1
  70. ID                                       : 4
  71. Format                                   : UTF-8
  72. Codec ID                                 : S_TEXT/UTF8
  73. Codec ID/Info                            : UTF-8 Plain Text
  74. Duration                                 : 1 h 20 min
  75. Bit rate                                 : 38 b/s
  76. Frame rate                               : 0.152 FPS
  77. Count of elements                        : 739
  78. Stream size                              : 22.7 KiB (0%)
  79. Language                                 : English
  80. Default                                  : Yes
  81. Forced                                   : No
  82. Text #2
  83. ID                                       : 5
  84. Format                                   : UTF-8
  85. Codec ID                                 : S_TEXT/UTF8
  86. Codec ID/Info                            : UTF-8 Plain Text
  87. Duration                                 : 1 h 28 min
  88. Bit rate                                 : 47 b/s
  89. Frame rate                               : 0.205 FPS
  90. Count of elements                        : 1095
  91. Stream size                              : 30.7 KiB (0%)
  92. Title                                    : SDH
  93. Language                                 : English
  94. Default                                  : No
  95. Forced                                   : No
  96. Text #3
  97. ID                                       : 6
  98. ID in the original source medium         : 4768 (0x12A0)
  99. Format                                   : PGS
  100. Muxing mode                              : zlib
  101. Codec ID                                 : S_HDMV/PGS
  102. Codec ID/Info                            : Picture based subtitle format used on BDs/HD-DVDs
  103. Duration                                 : 1 h 28 min
  104. Bit rate                                 : 29.6 kb/s
  105. Frame rate                               : 0.413 FPS
  106. Count of elements                        : 2204
  107. Stream size                              : 18.8 MiB (0%)
  108. Language                                 : English
  109. Default                                  : No
  110. Forced                                   : No
  111. Original source medium                   : Blu-ray
  112. Menu
  113. 00:00:00.000                             : en:Chapter 01
  114. 00:09:31.821                             : en:Chapter 02
  115. 00:16:28.028                             : en:Chapter 03
  116. 00:24:14.786                             : en:Chapter 04
  117. 00:32:12.055                             : en:Chapter 05
  118. 00:40:04.944                             : en:Chapter 06
  119. 00:49:29.591                             : en:Chapter 07
  120. 00:55:53.767                             : en:Chapter 08
  121. 01:02:25.450                             : en:Chapter 09
  122. 01:10:03.782                             : en:Chapter 10
  123. 01:15:25.270                             : en:Chapter 11
  124. 01:22:05.837                             : en:Chapter 12
  125. 01:29:23.316                             : en:Chapter 13
复制代码















回复

使用道具 举报

懒得打字嘛,点击右侧快捷回复 【右侧内容,后台自定义】
您需要登录后才可以回帖 登录 | 立即加入

本版积分规则

Archiver|小黑屋| 蓝光电影网 |网站地图

Copyright © 2021 Comsenz Inc. Powered by 蓝光电影网

蓝光电影网

本站内容由用户自主分享和转载自互联网,转载目的在于传递更多信息,并不代表本网赞同其观点和对其真实性负责。

如有侵权、违反国家法律政策行为,请联系我们,我们会第一时间及时清除和处理!

举报反馈邮箱:[email protected]

快速回复 返回顶部 返回列表