找回密码

蓝光电影网

查看: 67|回复: 0

[2160p] 冰路营救.The.Ice.Road.2021.2160p.UHD.BluRay.x265.10bit.HDR.DDP5.1-RARBG 6.61GB

[复制链接]
蓝光币
1084
发表于 2023-1-14 14:02:53 | 显示全部楼层 |阅读模式


◎标  题 冰路救援
◎译  名 极地冰劫(港) / 疾冻救济(台) / Red Ice
◎片  名 The Ice Road
◎年  代 2021
◎产  地 美国 / 加拿大
◎类  别 剧情 / 行动 / 惊悚 / 冒险
◎语  言 英语
◎上映日期 2021-06-25(美国)
◎IMDb评分 5.6/10 (42207人评价)
◎IMDb链接 https://www.imdb.com/title/tt3758814/
◎豆瓣评分 6.4/10 (12614人评价)
◎豆瓣链接 https://movie.douban.com/subject/34802334/
◎片  长 109分钟
◎导  演 乔纳森·汉斯雷 Jonathan Hensleigh
◎编  剧 乔纳森·汉斯雷 Jonathan Hensleigh
◎演  员 连姆·尼森 Liam Neeson
       马库斯·托马斯 Marcus Thomas
       劳伦斯·菲什伯恩 Laurence Fishburne
       安伯·明迪桑德 Amber Midthunder
       本杰明·沃克 Benjamin Walker
       霍特·麦克卡兰尼 Holt McCallany
       马丁·桑斯梅耶 Martin Senmeier
       马特·麦考伊 Matt McCoy
       马特·塞林格 Matt Salinger
       查德·布鲁斯 Chad Bruce
       亚当·哈蒂格 Adam Hurtig
       布拉德利·索茨基 Bradley Sawatzky
       马歇尔·威廉斯 Marshall Williams
       加布里埃尔·丹尼尔斯 Gabriel Daniels
       劳伦·科克伦 Lauren Cochrane
       阿尔·科利 Al Corley
       捷克琳·洛温 Jacqueline Loewen
       艾丽西亚·约翰斯顿 Alicia Johnston
       艾伦·默克 Aaron Merke
       达西·菲尔 Darcy Fehr
       洛丽·帕帕佐普洛斯 Lorrie Papadopoulos
       Bj·韦罗 Bj Verot
◎简  介
    在加拿大北部偏僻地域的一个钻石矿倾圮后,冰路卡车司机(连姆·尼森饰)必须率领救济职员完成一项不成能的使命 — 穿越结冰的海面,救援被困矿工。除了融冰微风暴,还有难以预见的威胁在等着他们。
  1. Video
  2. ID                                       : 1
  3. Format                                   : HEVC
  4. Format/Info                              : High Efficiency Video Coding
  5. Format profile                           : Main [email protected]@Main
  6. HDR format                               : SMPTE ST 2086, HDR10 compatible
  7. Codec ID                                 : V_MPEGH/ISO/HEVC
  8. Duration                                 : 1 h 49 min
  9. Bit rate                                 : 8 017 kb/s
  10. Width                                    : 3 840 pixels
  11. Height                                   : 1 608 pixels
  12. Display aspect ratio                     : 2.40:1
  13. Frame rate mode                          : Constant
  14. Frame rate                               : 24.000 FPS
  15. Color space                              : YUV
  16. Chroma subsampling                       : 4:2:0
  17. Bit depth                                : 10 bits
  18. Bits/(Pixel*Frame)                       : 0.054
  19. Stream size                              : 6.12 GiB (93%)
  20. Writing library                          : x265 3.5+rarbg-HDR-38-20255e6:[Linux][clang 16.0.0][64 bit] 10bit
  21. Encoding settings                        : cpuid=1111039 / frame-threads=6 / wpp / no-pmode / no-pme / no-psnr / no-ssim / log-level=2 / input-csp=1 / input-res=3840x1608 / interlace=0 / total-frames=0 / level-idc=51 / high-tier=1 / uhd-bd=0 / ref=4 / no-allow-non-conformance / repeat-headers / annexb / aud / no-eob / no-eos / no-hrd / info / hash=0 / no-temporal-layers / no-open-gop / min-keyint=1 / keyint=24 / gop-lookahead=0 / bframes=4 / b-adapt=2 / b-pyramid / bframe-bias=0 / rc-lookahead=25 / lookahead-slices=4 / scenecut=40 / no-hist-scenecut / radl=0 / no-splice / no-intra-refresh / ctu=64 / min-cu-size=8 / rect / no-amp / max-tu-size=32 / tu-inter-depth=1 / tu-intra-depth=1 / limit-tu=0 / rdoq-level=2 / dynamic-rd=0.00 / no-ssim-rd / signhide / no-tskip / nr-intra=0 / nr-inter=0 / no-constrained-intra / strong-intra-smoothing / max-merge=3 / limit-refs=3 / no-limit-modes / me=3 / subme=3 / merange=57 / temporal-mvp / no-frame-dup / no-hme / weightp / no-weightb / no-analyze-src-pics / deblock=0:0 / no-sao / no-sao-non-deblock / rd=4 / selective-sao=0 / no-early-skip / rskip / no-fast-intra / no-tskip-fast / no-cu-lossless / no-b-intra / no-splitrd-skip / rdpenalty=0 / psy-rd=2.00 / psy-rdoq=1.00 / no-rd-refine / no-lossless / cbqpoffs=0 / crqpoffs=0 / rc=abr / bitrate=8000 / qcomp=0.60 / qpstep=4 / stats-write=0 / stats-read=2 / cplxblur=20.0 / qblur=0.5 / ipratio=1.40 / pbratio=1.30 / aq-mode=1 / aq-strength=1.00 / cutree / zone-count=0 / no-strict-cbr / qg-size=32 / no-rc-grain / qpmax=69 / qpmin=0 / no-const-vbv / sar=1 / overscan=0 / videoformat=5 / range=0 / colorprim=9 / transfer=16 / colormatrix=9 / chromaloc=0 / display-window=0 / master-display=G(13250,34500)B(7500,3000)R(34000,16000)WP(15635,16450)L(10000000,10) / cll=1000,400 / min-luma=0 / max-luma=1023 / log2-max-poc-lsb=8 / vui-timing-info / vui-hrd-info / slices=1 / no-opt-qp-pps / no-opt-ref-list-length-pps / no-multi-pass-opt-rps / scenecut-bias=0.05 / hist-threshold=0.03 / no-opt-cu-delta-qp / no-aq-motion / hdr10 / hdr10-opt / no-dhdr10-opt / no-idr-recovery-sei / analysis-reuse-level=0 / analysis-save-reuse-level=0 / analysis-load-reuse-level=0 / scale-factor=0 / refine-intra=0 / refine-inter=0 / refine-mv=1 / refine-ctu-distortion=0 / no-limit-sao / ctu-info=0 / no-lowpass-dct / refine-analysis-type=0 / copy-pic=1 / max-ausize-factor=1.0 / no-dynamic-refine / no-single-sei / no-hevc-aq / no-svt / no-field / qp-adaptation-range=1.00 / scenecut-aware-qp=0conformance-window-offsets / right=0 / bottom=0 / decoder-max-rate=0 / no-vbv-live-multi-pass
  22. Default                                  : Yes
  23. Forced                                   : No
  24. Color range                              : Limited
  25. Color primaries                          : BT.2020
  26. Transfer characteristics                 : PQ
  27. Matrix coefficients                      : BT.2020 non-constant
  28. Mastering display color primaries        : Display P3
  29. Mastering display luminance              : min: 0.0010 cd/m2, max: 1000 cd/m2
  30. Maximum Content Light Level              : 1000 cd/m2
  31. Maximum Frame-Average Light Level        : 400 cd/m2
  32. Audio
  33. ID                                       : 2
  34. Format                                   : E-AC-3
  35. Format/Info                              : Enhanced AC-3
  36. Commercial name                          : Dolby Digital Plus
  37. Codec ID                                 : A_EAC3
  38. Duration                                 : 1 h 49 min
  39. Bit rate mode                            : Constant
  40. Bit rate                                 : 640 kb/s
  41. Channel(s)                               : 6 channels
  42. Channel layout                           : L R C LFE Ls Rs
  43. Sampling rate                            : 48.0 kHz
  44. Frame rate                               : 31.250 FPS (1536 SPF)
  45. Compression mode                         : Lossy
  46. Stream size                              : 500 MiB (7%)
  47. Title                                    : English DDP 5.1
  48. Language                                 : English
  49. Service kind                             : Complete Main
  50. Default                                  : Yes
  51. Forced                                   : No
  52. Text #1
  53. ID                                       : 3
  54. Format                                   : UTF-8
  55. Codec ID                                 : S_TEXT/UTF8
  56. Codec ID/Info                            : UTF-8 Plain Text
  57. Duration                                 : 1 h 41 min
  58. Bit rate                                 : 0 b/s
  59. Frame rate                               : 0.002 FPS
  60. Count of elements                        : 12
  61. Stream size                              : 434 Bytes (0%)
  62. Title                                    : English Forced SRT
  63. Language                                 : English
  64. Default                                  : No
  65. Forced                                   : Yes
  66. Text #2
  67. ID                                       : 4
  68. Format                                   : UTF-8
  69. Codec ID                                 : S_TEXT/UTF8
  70. Codec ID/Info                            : UTF-8 Plain Text
  71. Duration                                 : 1 h 47 min
  72. Bit rate                                 : 41 b/s
  73. Frame rate                               : 0.179 FPS
  74. Count of elements                        : 1158
  75. Stream size                              : 32.7 KiB (0%)
  76. Title                                    : English SRT
  77. Language                                 : English
  78. Default                                  : Yes
  79. Forced                                   : No
  80. Text #3
  81. ID                                       : 5
  82. Format                                   : UTF-8
  83. Codec ID                                 : S_TEXT/UTF8
  84. Codec ID/Info                            : UTF-8 Plain Text
  85. Duration                                 : 1 h 48 min
  86. Bit rate                                 : 48 b/s
  87. Frame rate                               : 0.209 FPS
  88. Count of elements                        : 1361
  89. Stream size                              : 38.9 KiB (0%)
  90. Title                                    : English SDH SRT
  91. Language                                 : English
  92. Default                                  : No
  93. Forced                                   : No
  94. Menu
  95. 00:00:00.000                             : en:Chapter 01
  96. 00:09:19.875                             : en:Chapter 02
  97. 00:15:49.208                             : en:Chapter 03
  98. 00:24:38.416                             : en:Chapter 04
  99. 00:32:03.500                             : en:Chapter 05
  100. 00:41:15.291                             : en:Chapter 06
  101. 00:49:18.000                             : en:Chapter 07
  102. 00:57:49.458                             : en:Chapter 08
  103. 01:05:46.541                             : en:Chapter 09
  104. 01:12:42.875                             : en:Chapter 10
  105. 01:20:02.458                             : en:Chapter 11
  106. 01:32:18.375                             : en:Chapter 12
  107. 01:48:46.083                             : en:Chapter 13
复制代码











回复

使用道具 举报

懒得打字嘛,点击右侧快捷回复 【右侧内容,后台自定义】
您需要登录后才可以回帖 登录 | 立即加入

本版积分规则

Archiver|小黑屋| 蓝光电影网 |网站地图

Copyright © 2021 Comsenz Inc. Powered by 蓝光电影网

蓝光电影网

本站内容由用户自主分享和转载自互联网,转载目的在于传递更多信息,并不代表本网赞同其观点和对其真实性负责。

如有侵权、违反国家法律政策行为,请联系我们,我们会第一时间及时清除和处理!

举报反馈邮箱:[email protected]

快速回复 返回顶部 返回列表