找回密码

蓝光电影网

查看: 149|回复: 3

[2160p] 冰路营救.The.Ice.Road.2021.2160p.UHD.BluRay.x265.10bit.HDR.DTS-HD.MA.5.1-RARBG 7.92GB

[复制链接]
蓝光币
1082
发表于 2023-1-14 14:02:56 | 显示全部楼层 |阅读模式


◎标  题 冰路救援
◎译  名 极地冰劫(港) / 疾冻救济(台) / Red Ice
◎片  名 The Ice Road
◎年  代 2021
◎产  地 美国 / 加拿大
◎类  别 剧情 / 行动 / 惊悚 / 冒险
◎语  言 英语
◎上映日期 2021-06-25(美国)
◎IMDb评分 5.6/10 (42207人评价)
◎IMDb链接 https://www.imdb.com/title/tt3758814/
◎豆瓣评分 6.4/10 (12614人评价)
◎豆瓣链接 https://movie.douban.com/subject/34802334/
◎片  长 109分钟
◎导  演 乔纳森·汉斯雷 Jonathan Hensleigh
◎编  剧 乔纳森·汉斯雷 Jonathan Hensleigh
◎演  员 连姆·尼森 Liam Neeson
       马库斯·托马斯 Marcus Thomas
       劳伦斯·菲什伯恩 Laurence Fishburne
       安伯·明迪桑德 Amber Midthunder
       本杰明·沃克 Benjamin Walker
       霍特·麦克卡兰尼 Holt McCallany
       马丁·桑斯梅耶 Martin Senmeier
       马特·麦考伊 Matt McCoy
       马特·塞林格 Matt Salinger
       查德·布鲁斯 Chad Bruce
       亚当·哈蒂格 Adam Hurtig
       布拉德利·索茨基 Bradley Sawatzky
       马歇尔·威廉斯 Marshall Williams
       加布里埃尔·丹尼尔斯 Gabriel Daniels
       劳伦·科克伦 Lauren Cochrane
       阿尔·科利 Al Corley
       捷克琳·洛温 Jacqueline Loewen
       艾丽西亚·约翰斯顿 Alicia Johnston
       艾伦·默克 Aaron Merke
       达西·菲尔 Darcy Fehr
       洛丽·帕帕佐普洛斯 Lorrie Papadopoulos
       Bj·韦罗 Bj Verot
◎简  介
    在加拿大北部偏僻地域的一个钻石矿倾圮后,冰路卡车司机(连姆·尼森饰)必须率领救济职员完成一项不成能的使命 — 穿越结冰的海面,救援被困矿工。除了融冰微风暴,还有难以预见的威胁在等着他们。
  1. Video
  2. ID                                       : 1
  3. Format                                   : HEVC
  4. Format/Info                              : High Efficiency Video Coding
  5. Format profile                           : Main [email protected]@Main
  6. HDR format                               : SMPTE ST 2086, HDR10 compatible
  7. Codec ID                                 : V_MPEGH/ISO/HEVC
  8. Duration                                 : 1 h 49 min
  9. Bit rate                                 : 8 017 kb/s
  10. Width                                    : 3 840 pixels
  11. Height                                   : 1 608 pixels
  12. Display aspect ratio                     : 2.40:1
  13. Frame rate mode                          : Constant
  14. Frame rate                               : 24.000 FPS
  15. Color space                              : YUV
  16. Chroma subsampling                       : 4:2:0
  17. Bit depth                                : 10 bits
  18. Bits/(Pixel*Frame)                       : 0.054
  19. Stream size                              : 6.12 GiB (77%)
  20. Writing library                          : x265 3.5+rarbg-HDR-38-20255e6:[Linux][clang 16.0.0][64 bit] 10bit
  21. Encoding settings                        : cpuid=1111039 / frame-threads=6 / wpp / no-pmode / no-pme / no-psnr / no-ssim / log-level=2 / input-csp=1 / input-res=3840x1608 / interlace=0 / total-frames=0 / level-idc=51 / high-tier=1 / uhd-bd=0 / ref=4 / no-allow-non-conformance / repeat-headers / annexb / aud / no-eob / no-eos / no-hrd / info / hash=0 / no-temporal-layers / no-open-gop / min-keyint=1 / keyint=24 / gop-lookahead=0 / bframes=4 / b-adapt=2 / b-pyramid / bframe-bias=0 / rc-lookahead=25 / lookahead-slices=4 / scenecut=40 / no-hist-scenecut / radl=0 / no-splice / no-intra-refresh / ctu=64 / min-cu-size=8 / rect / no-amp / max-tu-size=32 / tu-inter-depth=1 / tu-intra-depth=1 / limit-tu=0 / rdoq-level=2 / dynamic-rd=0.00 / no-ssim-rd / signhide / no-tskip / nr-intra=0 / nr-inter=0 / no-constrained-intra / strong-intra-smoothing / max-merge=3 / limit-refs=3 / no-limit-modes / me=3 / subme=3 / merange=57 / temporal-mvp / no-frame-dup / no-hme / weightp / no-weightb / no-analyze-src-pics / deblock=0:0 / no-sao / no-sao-non-deblock / rd=4 / selective-sao=0 / no-early-skip / rskip / no-fast-intra / no-tskip-fast / no-cu-lossless / no-b-intra / no-splitrd-skip / rdpenalty=0 / psy-rd=2.00 / psy-rdoq=1.00 / no-rd-refine / no-lossless / cbqpoffs=0 / crqpoffs=0 / rc=abr / bitrate=8000 / qcomp=0.60 / qpstep=4 / stats-write=0 / stats-read=2 / cplxblur=20.0 / qblur=0.5 / ipratio=1.40 / pbratio=1.30 / aq-mode=1 / aq-strength=1.00 / cutree / zone-count=0 / no-strict-cbr / qg-size=32 / no-rc-grain / qpmax=69 / qpmin=0 / no-const-vbv / sar=1 / overscan=0 / videoformat=5 / range=0 / colorprim=9 / transfer=16 / colormatrix=9 / chromaloc=0 / display-window=0 / master-display=G(13250,34500)B(7500,3000)R(34000,16000)WP(15635,16450)L(10000000,10) / cll=1000,400 / min-luma=0 / max-luma=1023 / log2-max-poc-lsb=8 / vui-timing-info / vui-hrd-info / slices=1 / no-opt-qp-pps / no-opt-ref-list-length-pps / no-multi-pass-opt-rps / scenecut-bias=0.05 / hist-threshold=0.03 / no-opt-cu-delta-qp / no-aq-motion / hdr10 / hdr10-opt / no-dhdr10-opt / no-idr-recovery-sei / analysis-reuse-level=0 / analysis-save-reuse-level=0 / analysis-load-reuse-level=0 / scale-factor=0 / refine-intra=0 / refine-inter=0 / refine-mv=1 / refine-ctu-distortion=0 / no-limit-sao / ctu-info=0 / no-lowpass-dct / refine-analysis-type=0 / copy-pic=1 / max-ausize-factor=1.0 / no-dynamic-refine / no-single-sei / no-hevc-aq / no-svt / no-field / qp-adaptation-range=1.00 / scenecut-aware-qp=0conformance-window-offsets / right=0 / bottom=0 / decoder-max-rate=0 / no-vbv-live-multi-pass
  22. Default                                  : Yes
  23. Forced                                   : No
  24. Color range                              : Limited
  25. Color primaries                          : BT.2020
  26. Transfer characteristics                 : PQ
  27. Matrix coefficients                      : BT.2020 non-constant
  28. Mastering display color primaries        : Display P3
  29. Mastering display luminance              : min: 0.0010 cd/m2, max: 1000 cd/m2
  30. Maximum Content Light Level              : 1000 cd/m2
  31. Maximum Frame-Average Light Level        : 400 cd/m2
  32. Audio #1
  33. ID                                       : 2
  34. Format                                   : DTS XLL
  35. Format/Info                              : Digital Theater Systems
  36. Commercial name                          : DTS-HD Master Audio
  37. Codec ID                                 : A_DTS
  38. Duration                                 : 1 h 49 min
  39. Bit rate mode                            : Variable
  40. Bit rate                                 : 1 975 kb/s
  41. Channel(s)                               : 6 channels
  42. Channel layout                           : C L R Ls Rs LFE
  43. Sampling rate                            : 48.0 kHz
  44. Frame rate                               : 93.750 FPS (512 SPF)
  45. Bit depth                                : 16 bits
  46. Compression mode                         : Lossless
  47. Stream size                              : 1.51 GiB (19%)
  48. Title                                    : English DTS-HD MA 5.1
  49. Language                                 : English
  50. Default                                  : Yes
  51. Forced                                   : No
  52. Audio #2
  53. ID                                       : 3
  54. Format                                   : AC-3
  55. Format/Info                              : Audio Coding 3
  56. Commercial name                          : Dolby Digital
  57. Codec ID                                 : A_AC3
  58. Duration                                 : 1 h 49 min
  59. Bit rate mode                            : Constant
  60. Bit rate                                 : 384 kb/s
  61. Channel(s)                               : 6 channels
  62. Channel layout                           : L R C LFE Ls Rs
  63. Sampling rate                            : 48.0 kHz
  64. Frame rate                               : 31.250 FPS (1536 SPF)
  65. Compression mode                         : Lossy
  66. Stream size                              : 300 MiB (4%)
  67. Title                                    : English DD 5.1
  68. Language                                 : English
  69. Service kind                             : Complete Main
  70. Default                                  : No
  71. Forced                                   : No
  72. Text #1
  73. ID                                       : 4
  74. Format                                   : UTF-8
  75. Codec ID                                 : S_TEXT/UTF8
  76. Codec ID/Info                            : UTF-8 Plain Text
  77. Duration                                 : 1 h 41 min
  78. Bit rate                                 : 0 b/s
  79. Frame rate                               : 0.002 FPS
  80. Count of elements                        : 12
  81. Stream size                              : 434 Bytes (0%)
  82. Title                                    : English Forced SRT
  83. Language                                 : English
  84. Default                                  : No
  85. Forced                                   : Yes
  86. Text #2
  87. ID                                       : 5
  88. Format                                   : UTF-8
  89. Codec ID                                 : S_TEXT/UTF8
  90. Codec ID/Info                            : UTF-8 Plain Text
  91. Duration                                 : 1 h 47 min
  92. Bit rate                                 : 41 b/s
  93. Frame rate                               : 0.179 FPS
  94. Count of elements                        : 1158
  95. Stream size                              : 32.7 KiB (0%)
  96. Title                                    : English SRT
  97. Language                                 : English
  98. Default                                  : Yes
  99. Forced                                   : No
  100. Text #3
  101. ID                                       : 6
  102. Format                                   : UTF-8
  103. Codec ID                                 : S_TEXT/UTF8
  104. Codec ID/Info                            : UTF-8 Plain Text
  105. Duration                                 : 1 h 48 min
  106. Bit rate                                 : 48 b/s
  107. Frame rate                               : 0.209 FPS
  108. Count of elements                        : 1361
  109. Stream size                              : 38.9 KiB (0%)
  110. Title                                    : English SDH SRT
  111. Language                                 : English
  112. Default                                  : No
  113. Forced                                   : No
  114. Menu
  115. 00:00:00.000                             : en:Chapter 01
  116. 00:09:19.875                             : en:Chapter 02
  117. 00:15:49.208                             : en:Chapter 03
  118. 00:24:38.416                             : en:Chapter 04
  119. 00:32:03.500                             : en:Chapter 05
  120. 00:41:15.291                             : en:Chapter 06
  121. 00:49:18.000                             : en:Chapter 07
  122. 00:57:49.458                             : en:Chapter 08
  123. 01:05:46.541                             : en:Chapter 09
  124. 01:12:42.875                             : en:Chapter 10
  125. 01:20:02.458                             : en:Chapter 11
  126. 01:32:18.375                             : en:Chapter 12
  127. 01:48:46.083                             : en:Chapter 13
复制代码











回复

使用道具 举报

蓝光币
11
发表于 2023-1-14 20:53:35 | 显示全部楼层
谢谢分享!!
回复

使用道具 举报

蓝光币
17
发表于 2023-1-15 09:10:57 | 显示全部楼层
感谢分享!
回复

使用道具 举报

蓝光币
4
发表于 2023-1-16 09:32:49 | 显示全部楼层

其实我一直觉得楼主的品味不错!呵呵!蓝光电影网太棒了!
回复 支持 反对

使用道具 举报

懒得打字嘛,点击右侧快捷回复 【右侧内容,后台自定义】
您需要登录后才可以回帖 登录 | 立即加入

本版积分规则

Archiver|小黑屋| 蓝光电影网 |网站地图

Copyright © 2021 Comsenz Inc. Powered by 蓝光电影网

蓝光电影网

本站内容由用户自主分享和转载自互联网,转载目的在于传递更多信息,并不代表本网赞同其观点和对其真实性负责。

如有侵权、违反国家法律政策行为,请联系我们,我们会第一时间及时清除和处理!

举报反馈邮箱:4k1080[email protected]

快速回复 返回顶部 返回列表