找回密码

蓝光电影网

查看: 34|回复: 0

[动作] 老方法.The.Old.Way.2023.1080p.WEB.H264-NAISU 6.30GB

[复制链接]
蓝光币
1078
发表于 2023-1-14 14:04:34 | 显示全部楼层 |阅读模式


◎标  题 老方式
◎译  名 老路
◎片  名 The Old Way
◎年  代 2023
◎产  地 美国
◎类  别 行动 / 西部
◎语  言 英语
◎上映日期 2023-01-06(美国)
◎IMDb评分 6.5/10 (129人评价)
◎IMDb链接 https://www.imdb.com/title/tt8593824/
◎豆瓣链接 https://movie.douban.com/subject/35592787/
◎片  长 95分钟
◎导  演 布雷特·多诺霍 Brett Donowho
◎编  剧 卡尔·卢卡斯 Carl W. Lucas
◎演  员 尼古拉斯·凯奇 Nicolas Cage
       克林特·霍华德 Clint Howard
       凯丽·科纳佩 Kerry Knuppe
       亚布拉哈姆·本鲁比 Abraham Benrubi
       赖恩·基拉·阿姆斯特朗 Ryan Kiera Armstrong
       尼克·瑟西 Nick Searcy
       希罗·弗南德兹 Shiloh Fernandez
       诺厄·勒·赫罗斯 Noah Le Gros
       博伊德·肯斯特纳 Boyd Kestner
       迪恩·阿姆斯特朗 Dean Armstrong
       艾迪·斯皮尔斯 Eddie Spears
       亚当·拉扎尔-怀特 Adam Lazarre-White
       斯凯勒·斯通 Skyler Stone
       梅兹·阿特伍德 Mezi Atwood
       布雷特·多诺霍 Brett Donowho
◎简  介
    凯奇饰演前神枪手演科尔顿·布里格斯,现在经营着一家杂货店,和家人一路安静地生活。当一帮暴徒残暴地杀戮了他的妻子,布里格斯回抵家,发现他的天下在熄灭。他取脱手枪,和一个意想不到的人——他12岁的女儿组队一路追求复仇。
  1. Video
  2. ID                                       : 1
  3. Format                                   : AVC
  4. Format/Info                              : Advanced Video Codec
  5. Format profile                           : [email protected]
  6. Format settings                          : CABAC / 4 Ref Frames
  7. Format settings, CABAC                   : Yes
  8. Format settings, Reference frames        : 4 frames
  9. Codec ID                                 : V_MPEG4/ISO/AVC
  10. Duration                                 : 1 h 35 min
  11. Bit rate mode                            : Constant
  12. Bit rate                                 : 8 642 kb/s
  13. Nominal bit rate                         : 10 000 kb/s
  14. Width                                    : 1 920 pixels
  15. Height                                   : 800 pixels
  16. Display aspect ratio                     : 2.40:1
  17. Frame rate mode                          : Constant
  18. Frame rate                               : 23.976 (24000/1001) FPS
  19. Color space                              : YUV
  20. Chroma subsampling                       : 4:2:0
  21. Bit depth                                : 8 bits
  22. Scan type                                : Progressive
  23. Bits/(Pixel*Frame)                       : 0.235
  24. Stream size                              : 5.75 GiB (91%)
  25. Default                                  : Yes
  26. Forced                                   : No
  27. Color range                              : Limited
  28. Color primaries                          : BT.709
  29. Transfer characteristics                 : BT.709
  30. Matrix coefficients                      : BT.709
  31. Audio
  32. ID                                       : 2
  33. Format                                   : E-AC-3
  34. Format/Info                              : Enhanced AC-3
  35. Commercial name                          : Dolby Digital Plus
  36. Codec ID                                 : A_EAC3
  37. Duration                                 : 1 h 35 min
  38. Bit rate mode                            : Constant
  39. Bit rate                                 : 640 kb/s
  40. Channel(s)                               : 6 channels
  41. Channel layout                           : L R C LFE Ls Rs
  42. Sampling rate                            : 48.0 kHz
  43. Frame rate                               : 31.250 FPS (1536 SPF)
  44. Compression mode                         : Lossy
  45. Stream size                              : 436 MiB (7%)
  46. Language                                 : English
  47. Service kind                             : Complete Main
  48. Default                                  : Yes
  49. Forced                                   : No
  50. Text
  51. ID                                       : 3
  52. Format                                   : ASS
  53. Codec ID                                 : S_TEXT/ASS
  54. Codec ID/Info                            : Advanced Sub Station Alpha
  55. Compression mode                         : Lossless
  56. Title                                    : English [SDH]
  57. Language                                 : English
  58. Default                                  : No
  59. Forced                                   : No
复制代码









回复

使用道具 举报

懒得打字嘛,点击右侧快捷回复 【右侧内容,后台自定义】
您需要登录后才可以回帖 登录 | 立即加入

本版积分规则

Archiver|小黑屋| 蓝光电影网 |网站地图

Copyright © 2021 Comsenz Inc. Powered by 蓝光电影网

蓝光电影网

本站内容由用户自主分享和转载自互联网,转载目的在于传递更多信息,并不代表本网赞同其观点和对其真实性负责。

如有侵权、违反国家法律政策行为,请联系我们,我们会第一时间及时清除和处理!

举报反馈邮箱:[email protected]

快速回复 返回顶部 返回列表