找回密码

蓝光电影网

查看: 252|回复: 4

[剧情] 时间胶囊.The.Time.Capsule.2022.1080p.BluRay.x264-JustWatch 9.74GB

[复制链接]
蓝光币
1084
发表于 2023-1-14 14:08:28 | 显示全部楼层 |阅读模式


◎标  题 时候胶囊
◎片  名 The Time Capsule
◎年  代 2021
◎产  地 美国
◎类  别 剧情 / 恋爱 / 科幻
◎语  言 英语
◎上映日期 2022-09-09(美国)
◎IMDb评分 5.2/10 (299人评价)
◎IMDb链接 https://www.imdb.com/title/tt10418680/
◎豆瓣链接 https://movie.douban.com/subject/35320644/
◎导  演 埃尔旺·G·马歇尔 Erwann G. Marshall
◎编  剧 埃尔旺·G·马歇尔 Erwann G. Marshall
◎演  员 托德·格林奈尔 Todd Grinnell
       布里安娜·希德布兰德 Brianna Hildebrand
       卡迪·斯特瑞兰德 KaDee Strickland
       巴伦·沃恩 Baron Vaughn
       纳尔逊·波尼拉 Nelson Bonilla
       查尔斯·格林 Charles Green
◎简  介
    未几的未来,一位刚刚履历选举失利的政客逃到了他家的夏日湖畔别墅。他的假期因初爱情人的出现而中断,初爱情人刚刚从20年的太空观光中归来,一天也没老。
  1. Video
  2. ID                                       : 1
  3. Format                                   : AVC
  4. Format/Info                              : Advanced Video Codec
  5. Format profile                           : [email protected]
  6. Format settings                          : CABAC / 5 Ref Frames
  7. Format settings, CABAC                   : Yes
  8. Format settings, Reference frames        : 5 frames
  9. Codec ID                                 : V_MPEG4/ISO/AVC
  10. Duration                                 : 1 h 45 min
  11. Bit rate                                 : 11.9 Mb/s
  12. Width                                    : 1 920 pixels
  13. Height                                   : 804 pixels
  14. Display aspect ratio                     : 2.40:1
  15. Frame rate mode                          : Constant
  16. Frame rate                               : 23.976 (24000/1001) FPS
  17. Color space                              : YUV
  18. Chroma subsampling                       : 4:2:0
  19. Bit depth                                : 8 bits
  20. Scan type                                : Progressive
  21. Bits/(Pixel*Frame)                       : 0.321
  22. Stream size                              : 8.73 GiB (90%)
  23. Writing library                          : x264 core 164 r3101 b093bbe
  24. Encoding settings                        : cabac=1 / ref=5 / deblock=1:-3:-3 / analyse=0x3:0x133 / me=umh / subme=9 / psy=1 / psy_rd=1.00:0.00 / mixed_ref=1 / me_range=16 / chroma_me=1 / trellis=2 / 8x8dct=1 / cqm=0 / deadzone=21,11 / fast_pskip=0 / chroma_qp_offset=-2 / threads=25 / lookahead_threads=2 / sliced_threads=0 / nr=0 / decimate=1 / interlaced=0 / bluray_compat=0 / constrained_intra=0 / bframes=3 / b_pyramid=2 / b_adapt=2 / b_bias=0 / direct=3 / weightb=1 / open_gop=0 / weightp=2 / keyint=250 / keyint_min=23 / scenecut=40 / intra_refresh=0 / rc_lookahead=60 / rc=crf / mbtree=1 / crf=15.0 / qcomp=0.60 / qpmin=0 / qpmax=69 / qpstep=4 / ip_ratio=1.40 / aq=1:1.00
  25. Language                                 : English
  26. Default                                  : Yes
  27. Forced                                   : No
  28. Audio
  29. ID                                       : 2
  30. Format                                   : DTS XLL
  31. Format/Info                              : Digital Theater Systems
  32. Commercial name                          : DTS-HD Master Audio
  33. Codec ID                                 : A_DTS
  34. Duration                                 : 1 h 45 min
  35. Bit rate mode                            : Variable
  36. Bit rate                                 : 1 357 kb/s
  37. Channel(s)                               : 6 channels
  38. Channel layout                           : C L R Ls Rs LFE
  39. Sampling rate                            : 48.0 kHz
  40. Frame rate                               : 93.750 FPS (512 SPF)
  41. Bit depth                                : 16 bits
  42. Compression mode                         : Lossless
  43. Stream size                              : 1 020 MiB (10%)
  44. Language                                 : English
  45. Default                                  : Yes
  46. Forced                                   : No
  47. Text #1
  48. ID                                       : 3
  49. Format                                   : PGS
  50. Muxing mode                              : zlib
  51. Codec ID                                 : S_HDMV/PGS
  52. Codec ID/Info                            : Picture based subtitle format used on BDs/HD-DVDs
  53. Duration                                 : 1 h 44 min
  54. Bit rate                                 : 27.1 kb/s
  55. Count of elements                        : 1920
  56. Stream size                              : 20.2 MiB (0%)
  57. Language                                 : German
  58. Default                                  : No
  59. Forced                                   : No
  60. Text #2
  61. ID                                       : 4
  62. Format                                   : PGS
  63. Muxing mode                              : zlib
  64. Codec ID                                 : S_HDMV/PGS
  65. Codec ID/Info                            : Picture based subtitle format used on BDs/HD-DVDs
  66. Duration                                 : 1 h 42 min
  67. Bit rate                                 : 110 b/s
  68. Count of elements                        : 7
  69. Stream size                              : 82.8 KiB (0%)
  70. Language                                 : German
  71. Default                                  : No
  72. Forced                                   : No
  73. Menu
  74. 00:00:00.000                             : en:Chapter 01
  75. 00:04:29.853                             : en:Chapter 02
  76. 00:15:08.032                             : en:Chapter 03
  77. 00:23:08.304                             : en:Chapter 04
  78. 00:32:50.552                             : en:Chapter 05
  79. 00:41:27.235                             : en:Chapter 06
  80. 00:48:55.015                             : en:Chapter 07
  81. 00:58:21.957                             : en:Chapter 08
  82. 01:04:52.764                             : en:Chapter 09
  83. 01:15:09.630                             : en:Chapter 10
  84. 01:29:53.888                             : en:Chapter 11
  85. 01:41:17.822                             : en:Chapter 12
复制代码












回复

使用道具 举报

蓝光币
195
发表于 2023-1-14 21:09:41 | 显示全部楼层
感谢楼主,再发精品
回复 支持 反对

使用道具 举报

蓝光币
40
发表于 2023-1-15 12:52:55 | 显示全部楼层

我看不错噢 谢谢楼主!蓝光电影网越来越好!
回复 支持 反对

使用道具 举报

蓝光币
195
发表于 2023-1-16 09:25:13 | 显示全部楼层
感谢楼主,再发精品
回复 支持 反对

使用道具 举报

蓝光币
224
发表于 2023-1-16 12:45:30 | 显示全部楼层

楼主太厉害了!楼主,电影应该很好看我觉得蓝光电影网真是个好地方!
回复 支持 反对

使用道具 举报

懒得打字嘛,点击右侧快捷回复 【右侧内容,后台自定义】
您需要登录后才可以回帖 登录 | 立即加入

本版积分规则

Archiver|小黑屋| 蓝光电影网 |网站地图

Copyright © 2021 Comsenz Inc. Powered by 蓝光电影网

蓝光电影网

本站内容由用户自主分享和转载自互联网,转载目的在于传递更多信息,并不代表本网赞同其观点和对其真实性负责。

如有侵权、违反国家法律政策行为,请联系我们,我们会第一时间及时清除和处理!

举报反馈邮箱:[email protected]

快速回复 返回顶部 返回列表