找回密码

蓝光电影网

查看: 162|回复: 2

[剧情] 双重危机.Double.Jeopardy.1999.1080p.BluRay.x264-OLDTiME 16.36GB

[复制链接]
蓝光币
1084
发表于 2023-1-14 14:08:28 | 显示全部楼层 |阅读模式


◎标  题 两重危机
◎译  名 致命追缉令 / 亡命追凶 / 两重诡计 / 两重特务
◎片  名 Double Jeopardy
◎年  代 1999
◎产  地 美国 / 德国 / 加拿大
◎类  别 剧情 / 悬疑 / 惊悚 / 犯罪
◎语  言 英语
◎上映日期 1999-09-21
◎IMDb评分 6.5/10 (88599人评价)
◎IMDb链接 https://www.imdb.com/title/tt0150377/
◎豆瓣评分 7.2/10 (7600人评价)
◎豆瓣链接 https://movie.douban.com/subject/1292676/
◎片  长 105分钟
◎导  演 布鲁斯·贝尔斯福德 Bruce Beresford
◎编  剧 大卫·韦斯伯格 David Weisberg
       道格拉斯·库克 Douglas Cook
       张策 Ce Zhang
◎演  员 汤米·李·琼斯 Tommy Lee Jones
       艾什莉·贾德 Ashley Judd
       杰伊·布拉泽奥 Jay Brazeau
       布鲁斯·格林伍德 Bruce Greenwood
       约翰·麦克拉伦 John Maclaren
       安娜贝丝·吉什 Annabeth Gish
       布伦南·埃利奥特 Brennan Elliott
       迈克尔·加斯顿 Michael Gaston
       吉莲·芭伯 Gillian Barber
       David Jacox David Jacox
       贝齐·布兰特利 Betsy Brantley
       罗马·玛菲娅 Roma Maffia
       达文尼亚·麦克法登 Davenia McFadden
       加布里埃尔·罗斯 Gabrielle Rose
       丹尼尔·莱派恩 Daniel Lapaine
       玛丽亚·埃雷拉 Maria Herrera
       巴布斯丘拉 Babs Chula
       恩卡·奥库玛 Enuka Okuma
       David Fredericks David Fredericks
       安娜·哈根 Anna Hagan
       富尔·切切里 Fulvio Cecere
       特雷西·维拉尔 Tracy Vilar
       Addison Ridge Addison Ridge
       因格里德·托伦斯 Ingrid Torrance
       罗杰·R.克劳斯 Roger R. Cross
       基冈·康纳·特雷西 Keegan Connor Tracy
       Dave Hager Dave Hager
       Austin B. Church Austin B. Church
       米凯尔·珊农·詹金斯 Mykel Shannon Jenkins
       Michelle Stafford Michelle Stafford
       Lance Spellerberg Lance Spellerberg
       乔治·牟利亚托斯 George Touliatos
       Brent Woolsey Brent Woolsey
       斯宾塞·崔特·克拉克 Spencer Treat Clark
       Tamer Riad Tamer Riad
       Nicolas Roye Nicolas Roye
◎简  介
    莉比(艾什莉·贾德 Ashley Judd 饰)和丈夫尼克(布鲁斯·格林伍德 Bruce Greenwood 饰)之间的豪情非常要好,两人配合哺育灵巧心爱的儿子马蒂(本杰明·韦弗 Benjamin Weaver 饰),幸运生活可谓典型。可是,在忽然之间,尼克奥秘失落留下大量血迹,莉比则沦为嫌犯终极锒铛入狱。莉比将马蒂拜托给了好友安吉(安娜贝丝·吉什 Annabeth Gish 饰),自己则在狱友玛格丽特(罗马·玛菲娅 Roma Maffia 饰)和伊芙琳(达文尼亚·麦克法登 Davenia McFadden 饰)的帮助下为了洗清罪名而做着不竭的尽力。                                                                      一晃眼六年曩昔,塔维斯警官(汤米·李·琼斯 Tommy Lee Jones 饰)成为了获得了假释的莉比的监护人,而此时的莉比发现,尼克不但没有灭亡,甚至改头换面带着儿子和安吉过着抛头露面的生活。履历了两重变节的莉比决议还击,而尼克也绝不会束手待毙,一场布满了诡计与危险的恶战行将拉开帷幕。
  1. Video
  2. ID                                       : 1
  3. Format                                   : AVC
  4. Format/Info                              : Advanced Video Codec
  5. Format profile                           : [email protected]
  6. Format settings                          : CABAC / 5 Ref Frames
  7. Format settings, CABAC                   : Yes
  8. Format settings, Reference frames        : 5 frames
  9. Codec ID                                 : V_MPEG4/ISO/AVC
  10. Duration                                 : 1 h 45 min
  11. Bit rate                                 : 17.8 Mb/s
  12. Width                                    : 1 920 pixels
  13. Height                                   : 800 pixels
  14. Display aspect ratio                     : 2.40:1
  15. Frame rate mode                          : Constant
  16. Frame rate                               : 23.976 (24000/1001) FPS
  17. Color space                              : YUV
  18. Chroma subsampling                       : 4:2:0
  19. Bit depth                                : 8 bits
  20. Scan type                                : Progressive
  21. Bits/(Pixel*Frame)                       : 0.483
  22. Stream size                              : 13.1 GiB (80%)
  23. Writing library                          : x264 core 164 r3101 b093bbe
  24. Encoding settings                        : cabac=1 / ref=5 / deblock=1:-3:-3 / analyse=0x3:0x133 / me=umh / subme=9 / psy=1 / psy_rd=1.00:0.00 / mixed_ref=1 / me_range=16 / chroma_me=1 / trellis=2 / 8x8dct=1 / cqm=0 / deadzone=21,11 / fast_pskip=0 / chroma_qp_offset=-2 / threads=25 / lookahead_threads=2 / sliced_threads=0 / nr=0 / decimate=1 / interlaced=0 / bluray_compat=0 / constrained_intra=0 / bframes=3 / b_pyramid=2 / b_adapt=2 / b_bias=0 / direct=3 / weightb=1 / open_gop=0 / weightp=2 / keyint=250 / keyint_min=23 / scenecut=40 / intra_refresh=0 / rc_lookahead=60 / rc=crf / mbtree=1 / crf=17.0 / qcomp=0.60 / qpmin=0 / qpmax=69 / qpstep=4 / ip_ratio=1.40 / aq=1:1.00
  25. Language                                 : English
  26. Default                                  : Yes
  27. Forced                                   : No
  28. Audio #1
  29. ID                                       : 2
  30. ID in the original source medium         : 4352 (0x1100)
  31. Format                                   : MLP FBA
  32. Format/Info                              : Meridian Lossless Packing FBA
  33. Commercial name                          : Dolby TrueHD
  34. Codec ID                                 : A_TRUEHD
  35. Duration                                 : 1 h 45 min
  36. Bit rate mode                            : Variable
  37. Bit rate                                 : 3 547 kb/s
  38. Maximum bit rate                         : 5 040 kb/s
  39. Channel(s)                               : 6 channels
  40. Channel layout                           : L R C LFE Ls Rs
  41. Sampling rate                            : 48.0 kHz
  42. Frame rate                               : 1 200.000 FPS (40 SPF)
  43. Compression mode                         : Lossless
  44. Stream size                              : 2.61 GiB (16%)
  45. Language                                 : English
  46. Default                                  : Yes
  47. Forced                                   : No
  48. Original source medium                   : Blu-ray
  49. Audio #2
  50. ID                                       : 3
  51. Format                                   : AC-3
  52. Format/Info                              : Audio Coding 3
  53. Commercial name                          : Dolby Digital
  54. Codec ID                                 : A_AC3
  55. Duration                                 : 1 h 45 min
  56. Bit rate mode                            : Constant
  57. Bit rate                                 : 640 kb/s
  58. Channel(s)                               : 6 channels
  59. Channel layout                           : L R C LFE Ls Rs
  60. Sampling rate                            : 48.0 kHz
  61. Frame rate                               : 31.250 FPS (1536 SPF)
  62. Compression mode                         : Lossy
  63. Stream size                              : 482 MiB (3%)
  64. Language                                 : English
  65. Service kind                             : Complete Main
  66. Default                                  : No
  67. Forced                                   : No
  68. Audio #3
  69. ID                                       : 4
  70. Format                                   : AAC LC
  71. Format/Info                              : Advanced Audio Codec Low Complexity
  72. Codec ID                                 : A_AAC-2
  73. Duration                                 : 1 h 45 min
  74. Bit rate                                 : 123 kb/s
  75. Channel(s)                               : 2 channels
  76. Channel layout                           : L R
  77. Sampling rate                            : 48.0 kHz
  78. Frame rate                               : 46.875 FPS (1024 SPF)
  79. Compression mode                         : Lossy
  80. Delay relative to video                  : 9 ms
  81. Stream size                              : 92.3 MiB (1%)
  82. Title                                    : commentary
  83. Language                                 : English
  84. Default                                  : No
  85. Forced                                   : No
  86. Text #1
  87. ID                                       : 5
  88. ID in the original source medium         : 4608 (0x1200)
  89. Format                                   : PGS
  90. Muxing mode                              : zlib
  91. Codec ID                                 : S_HDMV/PGS
  92. Codec ID/Info                            : Picture based subtitle format used on BDs/HD-DVDs
  93. Duration                                 : 1 h 38 min
  94. Bit rate                                 : 37.0 kb/s
  95. Count of elements                        : 2276
  96. Stream size                              : 26.1 MiB (0%)
  97. Language                                 : English
  98. Default                                  : No
  99. Forced                                   : No
  100. Original source medium                   : Blu-ray
  101. Text #2
  102. ID                                       : 6
  103. ID in the original source medium         : 4609 (0x1201)
  104. Format                                   : PGS
  105. Muxing mode                              : zlib
  106. Codec ID                                 : S_HDMV/PGS
  107. Codec ID/Info                            : Picture based subtitle format used on BDs/HD-DVDs
  108. Duration                                 : 1 h 38 min
  109. Bit rate                                 : 43.8 kb/s
  110. Count of elements                        : 2796
  111. Stream size                              : 31.0 MiB (0%)
  112. Language                                 : English
  113. Default                                  : No
  114. Forced                                   : No
  115. Original source medium                   : Blu-ray
  116. Text #3
  117. ID                                       : 7
  118. ID in the original source medium         : 4610 (0x1202)
  119. Format                                   : PGS
  120. Muxing mode                              : zlib
  121. Codec ID                                 : S_HDMV/PGS
  122. Codec ID/Info                            : Picture based subtitle format used on BDs/HD-DVDs
  123. Duration                                 : 1 h 38 min
  124. Bit rate                                 : 29.2 kb/s
  125. Count of elements                        : 1604
  126. Stream size                              : 20.6 MiB (0%)
  127. Language                                 : German
  128. Default                                  : No
  129. Forced                                   : No
  130. Original source medium                   : Blu-ray
  131. Text #4
  132. ID                                       : 8
  133. ID in the original source medium         : 4611 (0x1203)
  134. Format                                   : PGS
  135. Muxing mode                              : zlib
  136. Codec ID                                 : S_HDMV/PGS
  137. Codec ID/Info                            : Picture based subtitle format used on BDs/HD-DVDs
  138. Duration                                 : 1 h 38 min
  139. Bit rate                                 : 25.7 kb/s
  140. Count of elements                        : 1588
  141. Stream size                              : 18.1 MiB (0%)
  142. Language                                 : Spanish
  143. Default                                  : No
  144. Forced                                   : No
  145. Original source medium                   : Blu-ray
  146. Text #5
  147. ID                                       : 9
  148. ID in the original source medium         : 4612 (0x1204)
  149. Format                                   : PGS
  150. Muxing mode                              : zlib
  151. Codec ID                                 : S_HDMV/PGS
  152. Codec ID/Info                            : Picture based subtitle format used on BDs/HD-DVDs
  153. Duration                                 : 1 h 38 min
  154. Bit rate                                 : 26.3 kb/s
  155. Count of elements                        : 1686
  156. Stream size                              : 18.6 MiB (0%)
  157. Language                                 : French
  158. Default                                  : No
  159. Forced                                   : No
  160. Original source medium                   : Blu-ray
  161. Text #6
  162. ID                                       : 10
  163. ID in the original source medium         : 4613 (0x1205)
  164. Format                                   : PGS
  165. Muxing mode                              : zlib
  166. Codec ID                                 : S_HDMV/PGS
  167. Codec ID/Info                            : Picture based subtitle format used on BDs/HD-DVDs
  168. Duration                                 : 1 h 43 min
  169. Bit rate                                 : 31.7 kb/s
  170. Count of elements                        : 2152
  171. Stream size                              : 23.5 MiB (0%)
  172. Language                                 : Italian
  173. Default                                  : No
  174. Forced                                   : No
  175. Original source medium                   : Blu-ray
  176. Text #7
  177. ID                                       : 11
  178. ID in the original source medium         : 4614 (0x1206)
  179. Format                                   : PGS
  180. Muxing mode                              : zlib
  181. Codec ID                                 : S_HDMV/PGS
  182. Codec ID/Info                            : Picture based subtitle format used on BDs/HD-DVDs
  183. Duration                                 : 1 h 38 min
  184. Bit rate                                 : 21.0 kb/s
  185. Count of elements                        : 1906
  186. Stream size                              : 14.8 MiB (0%)
  187. Language                                 : Japanese
  188. Default                                  : No
  189. Forced                                   : No
  190. Original source medium                   : Blu-ray
  191. Text #8
  192. ID                                       : 12
  193. ID in the original source medium         : 4615 (0x1207)
  194. Format                                   : PGS
  195. Muxing mode                              : zlib
  196. Codec ID                                 : S_HDMV/PGS
  197. Codec ID/Info                            : Picture based subtitle format used on BDs/HD-DVDs
  198. Duration                                 : 1 h 36 min
  199. Bit rate                                 : 339 b/s
  200. Count of elements                        : 18
  201. Stream size                              : 240 KiB (0%)
  202. Language                                 : German
  203. Default                                  : No
  204. Forced                                   : No
  205. Original source medium                   : Blu-ray
  206. Text #9
  207. ID                                       : 13
  208. ID in the original source medium         : 4616 (0x1208)
  209. Format                                   : PGS
  210. Muxing mode                              : zlib
  211. Codec ID                                 : S_HDMV/PGS
  212. Codec ID/Info                            : Picture based subtitle format used on BDs/HD-DVDs
  213. Duration                                 : 1 h 6 min
  214. Bit rate                                 : 308 b/s
  215. Count of elements                        : 16
  216. Stream size                              : 149 KiB (0%)
  217. Language                                 : French
  218. Default                                  : No
  219. Forced                                   : No
  220. Original source medium                   : Blu-ray
  221. Text #10
  222. ID                                       : 14
  223. ID in the original source medium         : 4617 (0x1209)
  224. Format                                   : PGS
  225. Muxing mode                              : zlib
  226. Codec ID                                 : S_HDMV/PGS
  227. Codec ID/Info                            : Picture based subtitle format used on BDs/HD-DVDs
  228. Duration                                 : 1 h 6 min
  229. Bit rate                                 : 605 b/s
  230. Count of elements                        : 30
  231. Stream size                              : 293 KiB (0%)
  232. Language                                 : Japanese
  233. Default                                  : No
  234. Forced                                   : No
  235. Original source medium                   : Blu-ray
  236. Menu
  237. 00:00:00.000                             : en:Chapter 01
  238. 00:06:32.475                             : en:Chapter 02
  239. 00:13:26.847                             : en:Chapter 03
  240. 00:20:51.625                             : en:Chapter 04
  241. 00:27:37.280                             : en:Chapter 05
  242. 00:32:31.991                             : en:Chapter 06
  243. 00:40:25.798                             : en:Chapter 07
  244. 00:46:15.773                             : en:Chapter 08
  245. 00:52:40.407                             : en:Chapter 09
  246. 00:58:47.398                             : en:Chapter 10
  247. 01:06:20.559                             : en:Chapter 11
  248. 01:15:24.186                             : en:Chapter 12
  249. 01:21:18.373                             : en:Chapter 13
  250. 01:29:09.844                             : en:Chapter 14
  251. 01:36:22.818                             : en:Chapter 15
  252. 01:40:33.444                             : en:Chapter 16
复制代码









回复

使用道具 举报

蓝光币
174
发表于 2023-1-16 09:37:29 | 显示全部楼层
楼主发贴辛苦了,谢谢楼主分享!我觉得蓝光电影网是注册对了!
回复 支持 反对

使用道具 举报

蓝光币
231
发表于 2023-1-17 06:56:39 | 显示全部楼层
楼主发贴辛苦了,谢谢楼主分享!我觉得蓝光电影网是注册对了!
回复 支持 反对

使用道具 举报

懒得打字嘛,点击右侧快捷回复 【右侧内容,后台自定义】
您需要登录后才可以回帖 登录 | 立即加入

本版积分规则

Archiver|小黑屋| 蓝光电影网 |网站地图

Copyright © 2021 Comsenz Inc. Powered by 蓝光电影网

蓝光电影网

本站内容由用户自主分享和转载自互联网,转载目的在于传递更多信息,并不代表本网赞同其观点和对其真实性负责。

如有侵权、违反国家法律政策行为,请联系我们,我们会第一时间及时清除和处理!

举报反馈邮箱:[email protected]

快速回复 返回顶部 返回列表