找回密码

蓝光电影网

查看: 40|回复: 0

[2160p-WEB] 大病.Sick.2022.2160p.PCOK.WEB-DL.DDP5.1.DV.MP4.x265-DVSUX 8.86GB

[复制链接]
蓝光币
1078
发表于 2023-1-14 14:12:47 | 显示全部楼层 |阅读模式


◎标  题 大病
◎片  名 Sick
◎年  代 2022
◎产  地 美国
◎类  别 惊悚
◎语  言 英语
◎上映日期 2022-09-10(多伦多电影节) / 2023-01-13(美国)
◎IMDb评分 6.8/10 (99人评价)
◎IMDb链接 https://www.imdb.com/title/tt14642626/
◎豆瓣链接 https://movie.douban.com/subject/35774712/
◎片  长 83分钟
◎导  演 约翰·海姆斯 John Hyams
◎编  剧 凯文·威廉姆森 Kevin Williamson
◎演  员 马克·门查卡 Marc Menchaca
       迪伦·斯派比利 Dylan Sprayberry
       简·亚当斯 Jane Adams
◎简  介
    Due to the pandemic, Parker and her best friend decide to quarantine at the family lake house alone - or so they think.
  1. Video
  2. ID                                       : 1
  3. Format                                   : HEVC
  4. Format/Info                              : High Efficiency Video Coding
  5. Format profile                           : Main [email protected]@Main
  6. HDR format                               : Dolby Vision, Version 1.0, dvhe.05.06, BL+RPU
  7. Codec ID                                 : dvhe
  8. Codec ID/Info                            : High Efficiency Video Coding with Dolby Vision
  9. Duration                                 : 1 h 23 min
  10. Bit rate                                 : 15.1 Mb/s
  11. Width                                    : 3 840 pixels
  12. Height                                   : 2 160 pixels
  13. Display aspect ratio                     : 16:9
  14. Frame rate mode                          : Constant
  15. Frame rate                               : 23.976 (24000/1001) FPS
  16. Color space                              : YUV
  17. Chroma subsampling                       : 4:2:0 (Type 0)
  18. Bit depth                                : 10 bits
  19. Bits/(Pixel*Frame)                       : 0.076
  20. Stream size                              : 8.75 GiB (99%)
  21. Default                                  : Yes
  22. Alternate group                          : 1
  23. Encoded date                             : UTC 2023-01-13 15:55:54
  24. Tagged date                              : UTC 2023-01-13 15:56:45
  25. Color range                              : Full
  26. Codec configuration box                  : hvcC+dvcC
  27. Audio
  28. ID                                       : 2
  29. Format                                   : E-AC-3
  30. Format/Info                              : Enhanced AC-3
  31. Commercial name                          : Dolby Digital Plus
  32. Codec ID                                 : ec-3
  33. Duration                                 : 1 h 23 min
  34. Bit rate mode                            : Constant
  35. Bit rate                                 : 192 kb/s
  36. Maximum bit rate                         : 203 kb/s
  37. Channel(s)                               : 6 channels
  38. Channel layout                           : L R C LFE Ls Rs
  39. Sampling rate                            : 48.0 kHz
  40. Frame rate                               : 31.250 FPS (1536 SPF)
  41. Compression mode                         : Lossy
  42. Stream size                              : 114 MiB (1%)
  43. Title                                    : English
  44. Language                                 : English
  45. Service kind                             : Complete Main
  46. Default                                  : Yes
  47. Alternate group                          : 1
  48. Tagged date                              : UTC 2023-01-13 15:56:45
  49. Text #1
  50. ID                                       : 3
  51. Format                                   : Timed Text
  52. Codec ID                                 : tx3g
  53. Duration                                 : 1 h 22 min
  54. Bit rate mode                            : Variable
  55. Bit rate                                 : 40 b/s
  56. Frame rate                               : 0.372 FPS
  57. Stream size                              : 24.1 KiB (0%)
  58. Title                                    : English
  59. Language                                 : English
  60. Forced                                   : No
  61. Encoded date                             : UTC 2023-01-13 15:56:45
  62. Tagged date                              : UTC 2023-01-13 15:56:45
  63. Text #2
  64. ID                                       : 4
  65. Format                                   : Timed Text
  66. Codec ID                                 : tx3g
  67. Duration                                 : 1 h 16 min
  68. Bit rate mode                            : Variable
  69. Bit rate                                 : 32 b/s
  70. Frame rate                               : 0.254 FPS
  71. Stream size                              : 17.6 KiB (0%)
  72. Title                                    : English
  73. Language                                 : English
  74. Forced                                   : No
  75. Encoded date                             : UTC 2023-01-13 15:56:45
  76. Tagged date                              : UTC 2023-01-13 15:56:45
  77. Text #3
  78. ID                                       : 5
  79. Format                                   : Timed Text
  80. Codec ID                                 : tx3g
  81. Duration                                 : 1 h 23 min
  82. Bit rate mode                            : Variable
  83. Bit rate                                 : 49 b/s
  84. Frame rate                               : 0.389 FPS
  85. Stream size                              : 29.6 KiB (0%)
  86. Title                                    : Spanish-EU
  87. Language                                 : Spanish
  88. Forced                                   : No
  89. Encoded date                             : UTC 2023-01-13 15:56:45
  90. Tagged date                              : UTC 2023-01-13 15:56:45
复制代码











回复

使用道具 举报

懒得打字嘛,点击右侧快捷回复 【右侧内容,后台自定义】
您需要登录后才可以回帖 登录 | 立即加入

本版积分规则

Archiver|小黑屋| 蓝光电影网 |网站地图

Copyright © 2021 Comsenz Inc. Powered by 蓝光电影网

蓝光电影网

本站内容由用户自主分享和转载自互联网,转载目的在于传递更多信息,并不代表本网赞同其观点和对其真实性负责。

如有侵权、违反国家法律政策行为,请联系我们,我们会第一时间及时清除和处理!

举报反馈邮箱:[email protected]

快速回复 返回顶部 返回列表