找回密码

蓝光电影网

查看: 124|回复: 2

[2160p-WEB] 爱在度假屋[中文字幕].Love.In.The.Villa.2022.2160p.NF.WEB-DL.x265.10bit.HDR.DDP5.1.Atmos-ROMANTiC 15.96GB

[复制链接]
蓝光币
1084
发表于 2023-1-14 14:12:49 | 显示全部楼层 |阅读模式


◎标  题 爱在度假屋
◎片  名 Love in the Villa
◎年  代 2022
◎产  地 美国
◎类  别 笑剧 / 恋爱
◎语  言 英语
◎上映日期 2022-09-01(美国收集)
◎IMDb评分 5.4/10 (10122人评价)
◎IMDb链接 https://www.imdb.com/title/tt15463032/
◎豆瓣评分 5.2/10 (412人评价)
◎豆瓣链接 https://movie.douban.com/subject/35924879/
◎片  长 116 分钟
◎导  演 马克·斯蒂文·约翰逊 Mark Steven Johnson
◎编  剧 马克·斯蒂文·约翰逊 Mark Steven Johnson
◎演  员 汤姆·霍珀 Tom Hopper
       卡特琳娜·格兰厄姆 Katerina Graham
       Laura Higgins Laura Higgins
       埃莱娜·卡多纳 Hélène Cardona
       凯蒂·麦戈文 Katie McGovern
       彼得·阿佩塞拉 Peter Arpesella
       肖恩·阿姆辛 Sean Amsing
       Emilio Solfrizzi Emilio Solfrizzi
◎简  介
  一位年轻女子(卡特·格兰厄姆饰)在分手后前往浪漫的意大利维罗纳散心,成果发现自己预订的别墅同时也被他人订了,因而她不能反面一位愤世嫉俗(且边幅英俊)的英国男人(汤姆·霍珀饰)共度假期。
  1. Video
  2. ID                                       : 1
  3. Format                                   : HEVC
  4. Format/Info                              : High Efficiency Video Coding
  5. Format profile                           : Main [email protected]@Main
  6. HDR format                               : Dolby Vision, Version 1.0, dvhe.08.06, BL+RPU, HDR10 compatible / SMPTE ST 2086, HDR10 compatible
  7. Codec ID                                 : V_MPEGH/ISO/HEVC
  8. Duration                                 : 1 h 54 min
  9. Bit rate                                 : 19.2 Mb/s
  10. Width                                    : 3 840 pixels
  11. Height                                   : 2 160 pixels
  12. Display aspect ratio                     : 16:9
  13. Frame rate mode                          : Constant
  14. Frame rate                               : 24.000 FPS
  15. Color space                              : YUV
  16. Chroma subsampling                       : 4:2:0 (Type 2)
  17. Bit depth                                : 10 bits
  18. Bits/(Pixel*Frame)                       : 0.097
  19. Stream size                              : 15.3 GiB (96%)
  20. Default                                  : Yes
  21. Forced                                   : No
  22. Color range                              : Limited
  23. Color primaries                          : BT.2020
  24. Transfer characteristics                 : PQ
  25. Matrix coefficients                      : BT.2020 non-constant
  26. Mastering display color primaries        : Display P3
  27. Mastering display luminance              : min: 0.0001 cd/m2, max: 1000 cd/m2
  28. Maximum Content Light Level              : 1128 cd/m2
  29. Maximum Frame-Average Light Level        : 185 cd/m2
  30. Audio
  31. ID                                       : 2
  32. Format                                   : E-AC-3 JOC
  33. Format/Info                              : Enhanced AC-3 with Joint Object Coding
  34. Commercial name                          : Dolby Digital Plus with Dolby Atmos
  35. Codec ID                                 : A_EAC3
  36. Duration                                 : 1 h 54 min
  37. Bit rate mode                            : Constant
  38. Bit rate                                 : 768 kb/s
  39. Channel(s)                               : 6 channels
  40. Channel layout                           : L R C LFE Ls Rs
  41. Sampling rate                            : 48.0 kHz
  42. Frame rate                               : 31.250 FPS (1536 SPF)
  43. Compression mode                         : Lossy
  44. Stream size                              : 627 MiB (4%)
  45. Language                                 : English
  46. Service kind                             : Complete Main
  47. Default                                  : Yes
  48. Forced                                   : No
  49. Complexity index                         : 16
  50. Number of dynamic objects                : 15
  51. Bed channel count                        : 1 channel
  52. Bed channel configuration                : LFE
  53. Text #1
  54. ID                                       : 3
  55. Format                                   : UTF-8
  56. Codec ID                                 : S_TEXT/UTF8
  57. Codec ID/Info                            : UTF-8 Plain Text
  58. Duration                                 : 1 h 48 min
  59. Bit rate                                 : 57 b/s
  60. Frame rate                               : 0.267 FPS
  61. Count of elements                        : 1735
  62. Stream size                              : 45.9 KiB (0%)
  63. Language                                 : English
  64. Default                                  : No
  65. Forced                                   : No
  66. Text #2
  67. ID                                       : 4
  68. Format                                   : UTF-8
  69. Codec ID                                 : S_TEXT/UTF8
  70. Codec ID/Info                            : UTF-8 Plain Text
  71. Duration                                 : 1 h 51 min
  72. Bit rate                                 : 73 b/s
  73. Frame rate                               : 0.325 FPS
  74. Count of elements                        : 2184
  75. Stream size                              : 60.3 KiB (0%)
  76. Title                                    : SDH
  77. Language                                 : English
  78. Default                                  : No
  79. Forced                                   : No
  80. Text #3
  81. ID                                       : 5
  82. Format                                   : UTF-8
  83. Codec ID                                 : S_TEXT/UTF8
  84. Codec ID/Info                            : UTF-8 Plain Text
  85. Duration                                 : 1 h 53 min
  86. Bit rate                                 : 89 b/s
  87. Frame rate                               : 0.239 FPS
  88. Count of elements                        : 1635
  89. Stream size                              : 74.5 KiB (0%)
  90. Language                                 : Arabic
  91. Default                                  : No
  92. Forced                                   : No
  93. Text #4
  94. ID                                       : 6
  95. Format                                   : UTF-8
  96. Codec ID                                 : S_TEXT/UTF8
  97. Codec ID/Info                            : UTF-8 Plain Text
  98. Duration                                 : 1 h 53 min
  99. Bit rate                                 : 52 b/s
  100. Frame rate                               : 0.240 FPS
  101. Count of elements                        : 1638
  102. Stream size                              : 43.8 KiB (0%)
  103. Title                                    : Simplified
  104. Language                                 : Chinese (Simplied)
  105. Default                                  : No
  106. Forced                                   : No
  107. Text #5
  108. ID                                       : 7
  109. Format                                   : UTF-8
  110. Codec ID                                 : S_TEXT/UTF8
  111. Codec ID/Info                            : UTF-8 Plain Text
  112. Duration                                 : 1 h 53 min
  113. Bit rate                                 : 51 b/s
  114. Frame rate                               : 0.237 FPS
  115. Count of elements                        : 1616
  116. Stream size                              : 42.8 KiB (0%)
  117. Title                                    : Traditional
  118. Language                                 : Chinese (Traditional)
  119. Default                                  : No
  120. Forced                                   : No
  121. Text #6
  122. ID                                       : 8
  123. Format                                   : UTF-8
  124. Codec ID                                 : S_TEXT/UTF8
  125. Codec ID/Info                            : UTF-8 Plain Text
  126. Duration                                 : 1 h 53 min
  127. Bit rate                                 : 43 b/s
  128. Frame rate                               : 0.232 FPS
  129. Count of elements                        : 1587
  130. Stream size                              : 36.5 KiB (0%)
  131. Language                                 : Croatian
  132. Default                                  : No
  133. Forced                                   : No
  134. Text #7
  135. ID                                       : 9
  136. Format                                   : UTF-8
  137. Codec ID                                 : S_TEXT/UTF8
  138. Codec ID/Info                            : UTF-8 Plain Text
  139. Duration                                 : 1 h 53 min
  140. Bit rate                                 : 50 b/s
  141. Frame rate                               : 0.240 FPS
  142. Count of elements                        : 1638
  143. Stream size                              : 42.0 KiB (0%)
  144. Language                                 : Czech
  145. Default                                  : No
  146. Forced                                   : No
  147. Text #8
  148. ID                                       : 10
  149. Format                                   : UTF-8
  150. Codec ID                                 : S_TEXT/UTF8
  151. Codec ID/Info                            : UTF-8 Plain Text
  152. Duration                                 : 1 h 53 min
  153. Bit rate                                 : 48 b/s
  154. Frame rate                               : 0.231 FPS
  155. Count of elements                        : 1580
  156. Stream size                              : 40.9 KiB (0%)
  157. Language                                 : Danish
  158. Default                                  : No
  159. Forced                                   : No
  160. Text #9
  161. ID                                       : 11
  162. Format                                   : UTF-8
  163. Codec ID                                 : S_TEXT/UTF8
  164. Codec ID/Info                            : UTF-8 Plain Text
  165. Duration                                 : 1 h 53 min
  166. Bit rate                                 : 46 b/s
  167. Frame rate                               : 0.177 FPS
  168. Count of elements                        : 1206
  169. Stream size                              : 39.0 KiB (0%)
  170. Language                                 : Dutch
  171. Default                                  : No
  172. Forced                                   : No
  173. Text #10
  174. ID                                       : 12
  175. Format                                   : UTF-8
  176. Codec ID                                 : S_TEXT/UTF8
  177. Codec ID/Info                            : UTF-8 Plain Text
  178. Duration                                 : 1 h 53 min
  179. Bit rate                                 : 50 b/s
  180. Frame rate                               : 0.232 FPS
  181. Count of elements                        : 1582
  182. Stream size                              : 42.1 KiB (0%)
  183. Language                                 : fil
  184. Default                                  : No
  185. Forced                                   : No
  186. Text #11
  187. ID                                       : 13
  188. Format                                   : UTF-8
  189. Codec ID                                 : S_TEXT/UTF8
  190. Codec ID/Info                            : UTF-8 Plain Text
  191. Duration                                 : 1 h 53 min
  192. Bit rate                                 : 48 b/s
  193. Frame rate                               : 0.232 FPS
  194. Count of elements                        : 1586
  195. Stream size                              : 40.2 KiB (0%)
  196. Language                                 : Finnish
  197. Default                                  : No
  198. Forced                                   : No
  199. Text #12
  200. ID                                       : 14
  201. Format                                   : UTF-8
  202. Codec ID                                 : S_TEXT/UTF8
  203. Codec ID/Info                            : UTF-8 Plain Text
  204. Duration                                 : 1 h 53 min
  205. Bit rate                                 : 49 b/s
  206. Frame rate                               : 0.217 FPS
  207. Count of elements                        : 1483
  208. Stream size                              : 41.7 KiB (0%)
  209. Language                                 : French
  210. Default                                  : No
  211. Forced                                   : No
  212. Text #13
  213. ID                                       : 15
  214. Format                                   : UTF-8
  215. Codec ID                                 : S_TEXT/UTF8
  216. Codec ID/Info                            : UTF-8 Plain Text
  217. Duration                                 : 1 h 53 min
  218. Bit rate                                 : 49 b/s
  219. Frame rate                               : 0.227 FPS
  220. Count of elements                        : 1550
  221. Stream size                              : 41.0 KiB (0%)
  222. Language                                 : German
  223. Default                                  : No
  224. Forced                                   : No
  225. Text #14
  226. ID                                       : 16
  227. Format                                   : UTF-8
  228. Codec ID                                 : S_TEXT/UTF8
  229. Codec ID/Info                            : UTF-8 Plain Text
  230. Duration                                 : 1 h 53 min
  231. Bit rate                                 : 83 b/s
  232. Frame rate                               : 0.229 FPS
  233. Count of elements                        : 1561
  234. Stream size                              : 69.3 KiB (0%)
  235. Language                                 : Greek
  236. Default                                  : No
  237. Forced                                   : No
  238. Text #15
  239. ID                                       : 17
  240. Format                                   : UTF-8
  241. Codec ID                                 : S_TEXT/UTF8
  242. Codec ID/Info                            : UTF-8 Plain Text
  243. Duration                                 : 1 h 53 min
  244. Bit rate                                 : 85 b/s
  245. Frame rate                               : 0.239 FPS
  246. Count of elements                        : 1635
  247. Stream size                              : 71.4 KiB (0%)
  248. Language                                 : Hebrew
  249. Default                                  : No
  250. Forced                                   : No
  251. Text #16
  252. ID                                       : 18
  253. Format                                   : UTF-8
  254. Codec ID                                 : S_TEXT/UTF8
  255. Codec ID/Info                            : UTF-8 Plain Text
  256. Duration                                 : 1 h 53 min
  257. Bit rate                                 : 52 b/s
  258. Frame rate                               : 0.230 FPS
  259. Count of elements                        : 1569
  260. Stream size                              : 43.7 KiB (0%)
  261. Language                                 : Hungarian
  262. Default                                  : No
  263. Forced                                   : No
  264. Text #17
  265. ID                                       : 19
  266. Format                                   : UTF-8
  267. Codec ID                                 : S_TEXT/UTF8
  268. Codec ID/Info                            : UTF-8 Plain Text
  269. Duration                                 : 1 h 53 min
  270. Bit rate                                 : 48 b/s
  271. Frame rate                               : 0.237 FPS
  272. Count of elements                        : 1620
  273. Stream size                              : 40.5 KiB (0%)
  274. Language                                 : Indonesian
  275. Default                                  : No
  276. Forced                                   : No
  277. Text #18
  278. ID                                       : 20
  279. Format                                   : UTF-8
  280. Codec ID                                 : S_TEXT/UTF8
  281. Codec ID/Info                            : UTF-8 Plain Text
  282. Duration                                 : 1 h 53 min
  283. Bit rate                                 : 45 b/s
  284. Frame rate                               : 0.223 FPS
  285. Count of elements                        : 1522
  286. Stream size                              : 38.1 KiB (0%)
  287. Language                                 : Italian
  288. Default                                  : No
  289. Forced                                   : No
  290. Text #19
  291. ID                                       : 21
  292. Format                                   : UTF-8
  293. Codec ID                                 : S_TEXT/UTF8
  294. Codec ID/Info                            : UTF-8 Plain Text
  295. Duration                                 : 1 h 53 min
  296. Bit rate                                 : 56 b/s
  297. Frame rate                               : 0.250 FPS
  298. Count of elements                        : 1711
  299. Stream size                              : 47.5 KiB (0%)
  300. Language                                 : Japanese
  301. Default                                  : No
  302. Forced                                   : No
  303. Text #20
  304. ID                                       : 22
  305. Format                                   : UTF-8
  306. Codec ID                                 : S_TEXT/UTF8
  307. Codec ID/Info                            : UTF-8 Plain Text
  308. Duration                                 : 1 h 53 min
  309. Bit rate                                 : 66 b/s
  310. Frame rate                               : 0.240 FPS
  311. Count of elements                        : 1640
  312. Stream size                              : 55.1 KiB (0%)
  313. Language                                 : Korean
  314. Default                                  : No
  315. Forced                                   : No
  316. Text #21
  317. ID                                       : 23
  318. Format                                   : UTF-8
  319. Codec ID                                 : S_TEXT/UTF8
  320. Codec ID/Info                            : UTF-8 Plain Text
  321. Duration                                 : 1 h 53 min
  322. Bit rate                                 : 46 b/s
  323. Frame rate                               : 0.238 FPS
  324. Count of elements                        : 1625
  325. Stream size                              : 39.1 KiB (0%)
  326. Language                                 : Malay
  327. Default                                  : No
  328. Forced                                   : No
  329. Text #22
  330. ID                                       : 24
  331. Format                                   : UTF-8
  332. Codec ID                                 : S_TEXT/UTF8
  333. Codec ID/Info                            : UTF-8 Plain Text
  334. Duration                                 : 1 h 53 min
  335. Bit rate                                 : 50 b/s
  336. Frame rate                               : 0.164 FPS
  337. Count of elements                        : 1123
  338. Stream size                              : 41.8 KiB (0%)
  339. Language                                 : Norwegian Bokmal
  340. Default                                  : No
  341. Forced                                   : No
  342. Text #23
  343. ID                                       : 25
  344. Format                                   : UTF-8
  345. Codec ID                                 : S_TEXT/UTF8
  346. Codec ID/Info                            : UTF-8 Plain Text
  347. Duration                                 : 1 h 53 min
  348. Bit rate                                 : 47 b/s
  349. Frame rate                               : 0.237 FPS
  350. Count of elements                        : 1619
  351. Stream size                              : 40.0 KiB (0%)
  352. Language                                 : Polish
  353. Default                                  : No
  354. Forced                                   : No
  355. Text #24
  356. ID                                       : 26
  357. Format                                   : UTF-8
  358. Codec ID                                 : S_TEXT/UTF8
  359. Codec ID/Info                            : UTF-8 Plain Text
  360. Duration                                 : 1 h 53 min
  361. Bit rate                                 : 51 b/s
  362. Frame rate                               : 0.236 FPS
  363. Count of elements                        : 1614
  364. Stream size                              : 43.2 KiB (0%)
  365. Title                                    : Brazilian
  366. Language                                 : Portuguese (BR)
  367. Default                                  : No
  368. Forced                                   : No
  369. Text #25
  370. ID                                       : 27
  371. Format                                   : UTF-8
  372. Codec ID                                 : S_TEXT/UTF8
  373. Codec ID/Info                            : UTF-8 Plain Text
  374. Duration                                 : 1 h 53 min
  375. Bit rate                                 : 46 b/s
  376. Frame rate                               : 0.236 FPS
  377. Count of elements                        : 1613
  378. Stream size                              : 39.0 KiB (0%)
  379. Title                                    : Iberian
  380. Language                                 : Portuguese (PT)
  381. Default                                  : No
  382. Forced                                   : No
  383. Text #26
  384. ID                                       : 28
  385. Format                                   : UTF-8
  386. Codec ID                                 : S_TEXT/UTF8
  387. Codec ID/Info                            : UTF-8 Plain Text
  388. Duration                                 : 1 h 53 min
  389. Bit rate                                 : 56 b/s
  390. Frame rate                               : 0.210 FPS
  391. Count of elements                        : 1435
  392. Stream size                              : 46.8 KiB (0%)
  393. Language                                 : Romanian
  394. Default                                  : No
  395. Forced                                   : No
  396. Text #27
  397. ID                                       : 29
  398. Format                                   : UTF-8
  399. Codec ID                                 : S_TEXT/UTF8
  400. Codec ID/Info                            : UTF-8 Plain Text
  401. Duration                                 : 1 h 53 min
  402. Bit rate                                 : 78 b/s
  403. Frame rate                               : 0.228 FPS
  404. Count of elements                        : 1560
  405. Stream size                              : 65.6 KiB (0%)
  406. Language                                 : Russian
  407. Default                                  : No
  408. Forced                                   : No
  409. Text #28
  410. ID                                       : 30
  411. Format                                   : UTF-8
  412. Codec ID                                 : S_TEXT/UTF8
  413. Codec ID/Info                            : UTF-8 Plain Text
  414. Duration                                 : 1 h 53 min
  415. Bit rate                                 : 48 b/s
  416. Frame rate                               : 0.232 FPS
  417. Count of elements                        : 1584
  418. Stream size                              : 40.8 KiB (0%)
  419. Title                                    : Castilian
  420. Language                                 : Spanish (ES)
  421. Default                                  : No
  422. Forced                                   : No
  423. Text #29
  424. ID                                       : 31
  425. Format                                   : UTF-8
  426. Codec ID                                 : S_TEXT/UTF8
  427. Codec ID/Info                            : UTF-8 Plain Text
  428. Duration                                 : 1 h 53 min
  429. Bit rate                                 : 47 b/s
  430. Frame rate                               : 0.218 FPS
  431. Count of elements                        : 1492
  432. Stream size                              : 39.4 KiB (0%)
  433. Title                                    : Latin American
  434. Language                                 : Spanish (Latin America)
  435. Default                                  : No
  436. Forced                                   : No
  437. Text #30
  438. ID                                       : 32
  439. Format                                   : UTF-8
  440. Codec ID                                 : S_TEXT/UTF8
  441. Codec ID/Info                            : UTF-8 Plain Text
  442. Duration                                 : 1 h 53 min
  443. Bit rate                                 : 49 b/s
  444. Frame rate                               : 0.191 FPS
  445. Count of elements                        : 1307
  446. Stream size                              : 41.3 KiB (0%)
  447. Language                                 : Swedish
  448. Default                                  : No
  449. Forced                                   : No
  450. Text #31
  451. ID                                       : 33
  452. Format                                   : UTF-8
  453. Codec ID                                 : S_TEXT/UTF8
  454. Codec ID/Info                            : UTF-8 Plain Text
  455. Duration                                 : 1 h 53 min
  456. Bit rate                                 : 129 b/s
  457. Frame rate                               : 0.240 FPS
  458. Count of elements                        : 1638
  459. Stream size                              : 108 KiB (0%)
  460. Language                                 : Thai
  461. Default                                  : No
  462. Forced                                   : No
  463. Text #32
  464. ID                                       : 34
  465. Format                                   : UTF-8
  466. Codec ID                                 : S_TEXT/UTF8
  467. Codec ID/Info                            : UTF-8 Plain Text
  468. Duration                                 : 1 h 53 min
  469. Bit rate                                 : 51 b/s
  470. Frame rate                               : 0.224 FPS
  471. Count of elements                        : 1528
  472. Stream size                              : 43.1 KiB (0%)
  473. Language                                 : Turkish
  474. Default                                  : No
  475. Forced                                   : No
  476. Text #33
  477. ID                                       : 35
  478. Format                                   : UTF-8
  479. Codec ID                                 : S_TEXT/UTF8
  480. Codec ID/Info                            : UTF-8 Plain Text
  481. Duration                                 : 1 h 48 min
  482. Bit rate                                 : 83 b/s
  483. Frame rate                               : 0.252 FPS
  484. Count of elements                        : 1638
  485. Stream size                              : 66.5 KiB (0%)
  486. Language                                 : Ukrainian
  487. Default                                  : No
  488. Forced                                   : No
  489. Text #34
  490. ID                                       : 36
  491. Format                                   : UTF-8
  492. Codec ID                                 : S_TEXT/UTF8
  493. Codec ID/Info                            : UTF-8 Plain Text
  494. Duration                                 : 1 h 53 min
  495. Bit rate                                 : 73 b/s
  496. Frame rate                               : 0.228 FPS
  497. Count of elements                        : 1558
  498. Stream size                              : 61.4 KiB (0%)
  499. Language                                 : Vietnamese
  500. Default                                  : No
  501. Forced                                   : No
复制代码











回复

使用道具 举报

蓝光币
1307
发表于 2023-1-14 15:03:48 | 显示全部楼层
不错,收下了。
回复 支持 反对

使用道具 举报

蓝光币
59
发表于 2023-1-14 15:21:34 | 显示全部楼层
感谢分享
回复

使用道具 举报

懒得打字嘛,点击右侧快捷回复 【右侧内容,后台自定义】
您需要登录后才可以回帖 登录 | 立即加入

本版积分规则

Archiver|小黑屋| 蓝光电影网 |网站地图

Copyright © 2021 Comsenz Inc. Powered by 蓝光电影网

蓝光电影网

本站内容由用户自主分享和转载自互联网,转载目的在于传递更多信息,并不代表本网赞同其观点和对其真实性负责。

如有侵权、违反国家法律政策行为,请联系我们,我们会第一时间及时清除和处理!

举报反馈邮箱:[email protected]

快速回复 返回顶部 返回列表