找回密码

蓝光电影网

查看: 157|回复: 4

[2160p-WEB] 蒂米·菲列:错已铸成[中文字幕].Timmy.Failure.Mistakes.Were.Made.2020.2160p.DSNP.WEB-DL.x265.10bit.HDR.DDP5.1.Atmos-playWEB 11.67GB

[复制链接]
蓝光币
1080
发表于 2023-1-14 14:12:51 | 显示全部楼层 |阅读模式


◎标  题 蒂米·菲列:错已铸成
◎译  名 蒂米·菲悟 / Timmy Failure
◎片  名 Timmy Failure: Mistakes Were Made
◎年  代 2020
◎产  地 美国
◎类  别 剧情 / 儿童 / 奇异 / 冒险
◎语  言 英语
◎上映日期 2020-01-25(圣丹斯电影节) / 2020-02-07(美国)
◎IMDb链接 https://www.imdb.com/title/tt6820324/
◎豆瓣评分 6.3/10 (332人评价)
◎豆瓣链接 https://movie.douban.com/subject/27031097/
◎片  长 99分钟
◎导  演 汤姆·麦卡锡 Tom McCarthy
◎编  剧 汤姆·麦卡锡 Tom McCarthy
       斯蒂芬·帕斯蒂斯 Stephan Pastis
◎演  员 奥菲利亚·拉维邦德 Ophelia Lovibond
       华莱士·肖恩 Wallace Shawn
       凯尔·柏海莫 Kyle Bornheimer
       温斯洛·费格雷 Winslow Fegley
       克雷格·罗宾森 Craig Robinson
       克洛伊·科尔曼 Chloe Coleman
       Ruby Matenko Ruby Matenko
       艾-钱·卡里尔 Ai-Chan Carrier
       丹妮·海芙琳 Danni Heverin
       杰夫·桑卡 Jeff Sanca
       杰布·贝里耶 Jeb Berrier
       Jason Rouse Jason Rouse
◎标  签 儿童 / 奇异 / 长大 / 2020 / 迪士尼 / 美国 / 家庭 / 剧情
◎简  介
  该片改编自同名儿童小说,麦卡锡将同原著作者斯蒂芬·帕斯蒂斯配合编剧。该小说报告一个11岁的小男孩蒂米·菲悟,他是一个毫无眉目,却又自傲搞笑的私人侦察机构总裁。而他的同伴是一只设想出的北极熊。
  1. Video
  2. ID                                       : 1
  3. Format                                   : HEVC
  4. Format/Info                              : High Efficiency Video Coding
  5. Format profile                           : Main [email protected]@High
  6. HDR format                               : Dolby Vision, Version 1.0, dvhe.08.06, BL+RPU, HDR10 compatible / SMPTE ST 2086, HDR10 compatible
  7. Codec ID                                 : V_MPEGH/ISO/HEVC
  8. Duration                                 : 1 h 39 min
  9. Bit rate                                 : 16.3 Mb/s
  10. Width                                    : 3 840 pixels
  11. Height                                   : 2 160 pixels
  12. Display aspect ratio                     : 16:9
  13. Frame rate mode                          : Constant
  14. Frame rate                               : 23.976 (24000/1001) FPS
  15. Color space                              : YUV
  16. Chroma subsampling                       : 4:2:0
  17. Bit depth                                : 10 bits
  18. Bits/(Pixel*Frame)                       : 0.082
  19. Stream size                              : 11.4 GiB (97%)
  20. Default                                  : Yes
  21. Forced                                   : No
  22. Color range                              : Limited
  23. Color primaries                          : BT.2020
  24. Transfer characteristics                 : PQ
  25. Matrix coefficients                      : BT.2020 non-constant
  26. Mastering display color primaries        : BT.2020
  27. Mastering display luminance              : min: 0.0020 cd/m2, max: 1000 cd/m2
  28. Maximum Content Light Level              : 349 cd/m2
  29. Maximum Frame-Average Light Level        : 107 cd/m2
  30. Audio
  31. ID                                       : 2
  32. Format                                   : E-AC-3 JOC
  33. Format/Info                              : Enhanced AC-3 with Joint Object Coding
  34. Commercial name                          : Dolby Digital Plus with Dolby Atmos
  35. Format settings                          : Dolby Surround EX
  36. Codec ID                                 : A_EAC3
  37. Duration                                 : 1 h 39 min
  38. Bit rate mode                            : Constant
  39. Bit rate                                 : 448 kb/s
  40. Channel(s)                               : 6 channels
  41. Channel layout                           : L R C LFE Ls Rs
  42. Sampling rate                            : 48.0 kHz
  43. Frame rate                               : 31.250 FPS (1536 SPF)
  44. Compression mode                         : Lossy
  45. Stream size                              : 319 MiB (3%)
  46. Language                                 : English
  47. Service kind                             : Complete Main
  48. Default                                  : Yes
  49. Forced                                   : No
  50. Complexity index                         : 16
  51. Number of dynamic objects                : 15
  52. Bed channel count                        : 1 channel
  53. Bed channel configuration                : LFE
  54. Text #1
  55. ID                                       : 3
  56. Format                                   : UTF-8
  57. Codec ID                                 : S_TEXT/UTF8
  58. Codec ID/Info                            : UTF-8 Plain Text
  59. Duration                                 : 1 h 35 min
  60. Bit rate                                 : 67 b/s
  61. Frame rate                               : 0.239 FPS
  62. Count of elements                        : 1370
  63. Stream size                              : 47.1 KiB (0%)
  64. Language                                 : English
  65. Default                                  : No
  66. Forced                                   : No
  67. Text #2
  68. ID                                       : 4
  69. Format                                   : UTF-8
  70. Codec ID                                 : S_TEXT/UTF8
  71. Codec ID/Info                            : UTF-8 Plain Text
  72. Duration                                 : 1 h 35 min
  73. Bit rate                                 : 71 b/s
  74. Frame rate                               : 0.252 FPS
  75. Count of elements                        : 1449
  76. Stream size                              : 49.9 KiB (0%)
  77. Title                                    : SDH
  78. Language                                 : English
  79. Default                                  : No
  80. Forced                                   : No
  81. Text #3
  82. ID                                       : 5
  83. Format                                   : UTF-8
  84. Codec ID                                 : S_TEXT/UTF8
  85. Codec ID/Info                            : UTF-8 Plain Text
  86. Duration                                 : 1 h 38 min
  87. Bit rate                                 : 63 b/s
  88. Frame rate                               : 0.224 FPS
  89. Count of elements                        : 1324
  90. Stream size                              : 45.5 KiB (0%)
  91. Language                                 : Czech
  92. Default                                  : No
  93. Forced                                   : No
  94. Text #4
  95. ID                                       : 6
  96. Format                                   : UTF-8
  97. Codec ID                                 : S_TEXT/UTF8
  98. Codec ID/Info                            : UTF-8 Plain Text
  99. Duration                                 : 1 h 32 min
  100. Bit rate                                 : 68 b/s
  101. Frame rate                               : 0.246 FPS
  102. Count of elements                        : 1356
  103. Stream size                              : 46.3 KiB (0%)
  104. Language                                 : Danish
  105. Default                                  : No
  106. Forced                                   : No
  107. Text #5
  108. ID                                       : 7
  109. Format                                   : UTF-8
  110. Codec ID                                 : S_TEXT/UTF8
  111. Codec ID/Info                            : UTF-8 Plain Text
  112. Duration                                 : 1 h 38 min
  113. Bit rate                                 : 62 b/s
  114. Frame rate                               : 0.229 FPS
  115. Count of elements                        : 1357
  116. Stream size                              : 44.8 KiB (0%)
  117. Language                                 : German
  118. Default                                  : No
  119. Forced                                   : No
  120. Text #6
  121. ID                                       : 8
  122. Format                                   : UTF-8
  123. Codec ID                                 : S_TEXT/UTF8
  124. Codec ID/Info                            : UTF-8 Plain Text
  125. Duration                                 : 1 h 38 min
  126. Bit rate                                 : 108 b/s
  127. Frame rate                               : 0.227 FPS
  128. Count of elements                        : 1346
  129. Stream size                              : 78.5 KiB (0%)
  130. Language                                 : Greek
  131. Default                                  : No
  132. Forced                                   : No
  133. Text #7
  134. ID                                       : 9
  135. Format                                   : UTF-8
  136. Codec ID                                 : S_TEXT/UTF8
  137. Codec ID/Info                            : UTF-8 Plain Text
  138. Duration                                 : 1 h 38 min
  139. Bit rate                                 : 66 b/s
  140. Frame rate                               : 0.231 FPS
  141. Count of elements                        : 1365
  142. Stream size                              : 47.8 KiB (0%)
  143. Title                                    : Latin America
  144. Language                                 : Spanish (Latin America)
  145. Default                                  : No
  146. Forced                                   : No
  147. Text #8
  148. ID                                       : 10
  149. Format                                   : UTF-8
  150. Codec ID                                 : S_TEXT/UTF8
  151. Codec ID/Info                            : UTF-8 Plain Text
  152. Duration                                 : 1 h 38 min
  153. Bit rate                                 : 62 b/s
  154. Frame rate                               : 0.229 FPS
  155. Count of elements                        : 1358
  156. Stream size                              : 45.4 KiB (0%)
  157. Language                                 : Spanish (ES)
  158. Default                                  : No
  159. Forced                                   : No
  160. Text #9
  161. ID                                       : 11
  162. Format                                   : UTF-8
  163. Codec ID                                 : S_TEXT/UTF8
  164. Codec ID/Info                            : UTF-8 Plain Text
  165. Duration                                 : 1 h 38 min
  166. Bit rate                                 : 55 b/s
  167. Frame rate                               : 0.229 FPS
  168. Count of elements                        : 1353
  169. Stream size                              : 40.1 KiB (0%)
  170. Language                                 : Finnish
  171. Default                                  : No
  172. Forced                                   : No
  173. Text #10
  174. ID                                       : 12
  175. Format                                   : UTF-8
  176. Codec ID                                 : S_TEXT/UTF8
  177. Codec ID/Info                            : UTF-8 Plain Text
  178. Duration                                 : 1 h 38 min
  179. Bit rate                                 : 67 b/s
  180. Frame rate                               : 0.227 FPS
  181. Count of elements                        : 1346
  182. Stream size                              : 48.4 KiB (0%)
  183. Language                                 : French (FR)
  184. Default                                  : No
  185. Forced                                   : No
  186. Text #11
  187. ID                                       : 13
  188. Format                                   : UTF-8
  189. Codec ID                                 : S_TEXT/UTF8
  190. Codec ID/Info                            : UTF-8 Plain Text
  191. Duration                                 : 1 h 38 min
  192. Bit rate                                 : 65 b/s
  193. Frame rate                               : 0.226 FPS
  194. Count of elements                        : 1338
  195. Stream size                              : 47.1 KiB (0%)
  196. Language                                 : Hungarian
  197. Default                                  : No
  198. Forced                                   : No
  199. Text #12
  200. ID                                       : 14
  201. Format                                   : UTF-8
  202. Codec ID                                 : S_TEXT/UTF8
  203. Codec ID/Info                            : UTF-8 Plain Text
  204. Duration                                 : 1 h 38 min
  205. Bit rate                                 : 66 b/s
  206. Frame rate                               : 0.219 FPS
  207. Count of elements                        : 1299
  208. Stream size                              : 47.9 KiB (0%)
  209. Language                                 : Italian
  210. Default                                  : No
  211. Forced                                   : No
  212. Text #13
  213. ID                                       : 15
  214. Format                                   : UTF-8
  215. Codec ID                                 : S_TEXT/UTF8
  216. Codec ID/Info                            : UTF-8 Plain Text
  217. Duration                                 : 1 h 38 min
  218. Bit rate                                 : 61 b/s
  219. Frame rate                               : 0.243 FPS
  220. Count of elements                        : 1439
  221. Stream size                              : 44.3 KiB (0%)
  222. Language                                 : Japanese
  223. Default                                  : No
  224. Forced                                   : No
  225. Text #14
  226. ID                                       : 16
  227. Format                                   : UTF-8
  228. Codec ID                                 : S_TEXT/UTF8
  229. Codec ID/Info                            : UTF-8 Plain Text
  230. Duration                                 : 1 h 38 min
  231. Bit rate                                 : 74 b/s
  232. Frame rate                               : 0.230 FPS
  233. Count of elements                        : 1364
  234. Stream size                              : 53.8 KiB (0%)
  235. Language                                 : Korean
  236. Default                                  : No
  237. Forced                                   : No
  238. Text #15
  239. ID                                       : 17
  240. Format                                   : UTF-8
  241. Codec ID                                 : S_TEXT/UTF8
  242. Codec ID/Info                            : UTF-8 Plain Text
  243. Duration                                 : 1 h 38 min
  244. Bit rate                                 : 59 b/s
  245. Frame rate                               : 0.188 FPS
  246. Count of elements                        : 1112
  247. Stream size                              : 42.9 KiB (0%)
  248. Language                                 : Dutch
  249. Default                                  : No
  250. Forced                                   : No
  251. Text #16
  252. ID                                       : 18
  253. Format                                   : UTF-8
  254. Codec ID                                 : S_TEXT/UTF8
  255. Codec ID/Info                            : UTF-8 Plain Text
  256. Duration                                 : 1 h 38 min
  257. Bit rate                                 : 56 b/s
  258. Frame rate                               : 0.229 FPS
  259. Count of elements                        : 1356
  260. Stream size                              : 40.9 KiB (0%)
  261. Language                                 : Norwegian
  262. Default                                  : No
  263. Forced                                   : No
  264. Text #17
  265. ID                                       : 19
  266. Format                                   : UTF-8
  267. Codec ID                                 : S_TEXT/UTF8
  268. Codec ID/Info                            : UTF-8 Plain Text
  269. Duration                                 : 1 h 38 min
  270. Bit rate                                 : 51 b/s
  271. Frame rate                               : 0.227 FPS
  272. Count of elements                        : 1345
  273. Stream size                              : 37.4 KiB (0%)
  274. Language                                 : Polish
  275. Default                                  : No
  276. Forced                                   : No
  277. Text #18
  278. ID                                       : 20
  279. Format                                   : UTF-8
  280. Codec ID                                 : S_TEXT/UTF8
  281. Codec ID/Info                            : UTF-8 Plain Text
  282. Duration                                 : 1 h 38 min
  283. Bit rate                                 : 65 b/s
  284. Frame rate                               : 0.229 FPS
  285. Count of elements                        : 1358
  286. Stream size                              : 47.2 KiB (0%)
  287. Title                                    : Brazil
  288. Language                                 : Portuguese (BR)
  289. Default                                  : No
  290. Forced                                   : No
  291. Text #19
  292. ID                                       : 21
  293. Format                                   : UTF-8
  294. Codec ID                                 : S_TEXT/UTF8
  295. Codec ID/Info                            : UTF-8 Plain Text
  296. Duration                                 : 1 h 38 min
  297. Bit rate                                 : 69 b/s
  298. Frame rate                               : 0.229 FPS
  299. Count of elements                        : 1357
  300. Stream size                              : 50.5 KiB (0%)
  301. Language                                 : Portuguese (PT)
  302. Default                                  : No
  303. Forced                                   : No
  304. Text #20
  305. ID                                       : 22
  306. Format                                   : UTF-8
  307. Codec ID                                 : S_TEXT/UTF8
  308. Codec ID/Info                            : UTF-8 Plain Text
  309. Duration                                 : 1 h 38 min
  310. Bit rate                                 : 62 b/s
  311. Frame rate                               : 0.231 FPS
  312. Count of elements                        : 1366
  313. Stream size                              : 45.5 KiB (0%)
  314. Language                                 : Romanian
  315. Default                                  : No
  316. Forced                                   : No
  317. Text #21
  318. ID                                       : 23
  319. Format                                   : UTF-8
  320. Codec ID                                 : S_TEXT/UTF8
  321. Codec ID/Info                            : UTF-8 Plain Text
  322. Duration                                 : 1 h 38 min
  323. Bit rate                                 : 58 b/s
  324. Frame rate                               : 0.230 FPS
  325. Count of elements                        : 1361
  326. Stream size                              : 42.5 KiB (0%)
  327. Language                                 : Slovak
  328. Default                                  : No
  329. Forced                                   : No
  330. Text #22
  331. ID                                       : 24
  332. Format                                   : UTF-8
  333. Codec ID                                 : S_TEXT/UTF8
  334. Codec ID/Info                            : UTF-8 Plain Text
  335. Duration                                 : 1 h 38 min
  336. Bit rate                                 : 65 b/s
  337. Frame rate                               : 0.226 FPS
  338. Count of elements                        : 1339
  339. Stream size                              : 47.6 KiB (0%)
  340. Language                                 : Swedish
  341. Default                                  : No
  342. Forced                                   : No
  343. Text #23
  344. ID                                       : 25
  345. Format                                   : UTF-8
  346. Codec ID                                 : S_TEXT/UTF8
  347. Codec ID/Info                            : UTF-8 Plain Text
  348. Duration                                 : 1 h 38 min
  349. Bit rate                                 : 68 b/s
  350. Frame rate                               : 0.229 FPS
  351. Count of elements                        : 1357
  352. Stream size                              : 49.3 KiB (0%)
  353. Language                                 : Turkish
  354. Default                                  : No
  355. Forced                                   : No
  356. Text #24
  357. ID                                       : 26
  358. Format                                   : UTF-8
  359. Codec ID                                 : S_TEXT/UTF8
  360. Codec ID/Info                            : UTF-8 Plain Text
  361. Duration                                 : 1 h 38 min
  362. Bit rate                                 : 53 b/s
  363. Frame rate                               : 0.230 FPS
  364. Count of elements                        : 1360
  365. Stream size                              : 39.0 KiB (0%)
  366. Title                                    : Hong Kong
  367. Language                                 : Chinese (HK)
  368. Default                                  : No
  369. Forced                                   : No
  370. Text #25
  371. ID                                       : 27
  372. Format                                   : UTF-8
  373. Codec ID                                 : S_TEXT/UTF8
  374. Codec ID/Info                            : UTF-8 Plain Text
  375. Duration                                 : 1 h 38 min
  376. Bit rate                                 : 52 b/s
  377. Frame rate                               : 0.228 FPS
  378. Count of elements                        : 1351
  379. Stream size                              : 37.9 KiB (0%)
  380. Title                                    : Simplified
  381. Language                                 : Chinese (Simplied)
  382. Default                                  : No
  383. Forced                                   : No
  384. Text #26
  385. ID                                       : 28
  386. Format                                   : UTF-8
  387. Codec ID                                 : S_TEXT/UTF8
  388. Codec ID/Info                            : UTF-8 Plain Text
  389. Duration                                 : 1 h 32 min
  390. Bit rate                                 : 60 b/s
  391. Frame rate                               : 0.246 FPS
  392. Count of elements                        : 1359
  393. Stream size                              : 41.1 KiB (0%)
  394. Title                                    : Traditional
  395. Language                                 : Chinese (Traditional)
  396. Default                                  : No
  397. Forced                                   : No
复制代码











回复

使用道具 举报

蓝光币
59
发表于 2023-1-14 15:20:26 | 显示全部楼层
看看,感谢分享
回复 支持 反对

使用道具 举报

蓝光币
88
发表于 2023-1-14 15:23:00 | 显示全部楼层
顶楼主辛苦发帖,抗疫胜利有蓝光电影网的功劳
回复 支持 反对

使用道具 举报

蓝光币
3730
发表于 2023-1-14 21:34:30 | 显示全部楼层

楼主太厉害了!楼主,电影应该很好看我觉得蓝光电影网真是个好地方!
回复 支持 反对

使用道具 举报

蓝光币
41
发表于 2023-1-14 21:37:50 | 显示全部楼层
感谢分享
回复

使用道具 举报

懒得打字嘛,点击右侧快捷回复 【右侧内容,后台自定义】
您需要登录后才可以回帖 登录 | 立即加入

本版积分规则

Archiver|小黑屋| 蓝光电影网 |网站地图

Copyright © 2021 Comsenz Inc. Powered by 蓝光电影网

蓝光电影网

本站内容由用户自主分享和转载自互联网,转载目的在于传递更多信息,并不代表本网赞同其观点和对其真实性负责。

如有侵权、违反国家法律政策行为,请联系我们,我们会第一时间及时清除和处理!

举报反馈邮箱:[email protected]

快速回复 返回顶部 返回列表