找回密码

蓝光电影网

查看: 46|回复: 0

[2160p] 纽瓦克众圣.The.Many.Saints.of.Newark.2021.2160p.UHD.BluRay.x265.10bit.HDR.TrueHD.7.1.Atmos-RARBG 9.75GB

[复制链接]
蓝光币
1080
发表于 2023-1-14 22:12:04 | 显示全部楼层 |阅读模式


◎标  题 纽瓦克众圣
◎译  名 纽瓦克诸圣 / 纽瓦克的诸多圣人 / 黑道家属前传 / 纽瓦克众圣徒:黑道家属外传 / The Many Saints of Newark: A Sopranos Story
◎片  名 The Many Saints of Newark
◎年  代 2021
◎产  地 美国
◎类  别 剧情 / 犯罪
◎语  言 英语
◎上映日期 2021-10-01(美国 / 美国收集)
◎IMDb评分 6.3/10 (55498人评价)
◎IMDb链接 https://www.imdb.com/title/tt8110232/
◎豆瓣评分 6.1/10 (1364人评价)
◎豆瓣链接 https://movie.douban.com/subject/30165027/
◎片  长 120分钟
◎导  演 阿兰·泰勒 Alan Taylor
◎编  剧 劳伦斯·康纳尔 Lawrence Konner
       大卫·切斯 David Chase
◎演  员 迈克尔·甘多菲尼 Michael Gandolfini
       亚历桑德罗·尼沃拉 Alessandro Nivola
       维拉·法米加 Vera Farmiga
       乔·博恩瑟 Jon Bernthal
       小莱斯利·奥多姆 Leslie Odom Jr.
       寇瑞·斯托尔 Corey Stoll
       比利·马格努森 Billy Magnussen
       约翰·马加罗 John Magaro
       雷·利奥塔 Ray Liotta
       达里尔·爱德华兹 Daryl Edwards
       尼克·瓦莱隆加 Nick Vallelonga
       马提亚·孔福尔迪 Mattea Conforti
       德琼·瓦茨 De'Jon Watts
       法龙·索尔兹伯里 Faron Salisbury
       杰玛·特雷尔·加德纳 Germar Terrell Gardner
       安德鲁·波尔克 Andrew Polk
       肯·斯拉迪克 Ken Sladyk
       Sasha Morfaw Sasha Morfaw
       小戴维·M·桑多瓦尔 David M Sandoval Jr.
       Audrey Bennett Audrey Bennett
       伊恩·安特曼 Ian Unterman
       小弗洛伊德·安东尼·约翰 Floyd Anthony Johns Jr.
       克劳黛特·拉利 Claudette Lali
       斯蒂芬妮·林恩·威尔逊 Stephanie Lynn Wilson
       迈克尔·温·古查多 Michael Wren Gucciardo
       阿梅利亚·福勒 Amelia Fowler
       克里斯·勒潘塔 Chris LaPanta
       Edward Sass III Edward Sass III
       克雷格·格拉提 Craig Geraghty
       迈克尔·泽加斯基 Michael Zegarski
        Germir Robinson
◎简  介
    按照HBO大热剧集《黑道家属》改编的电影将问世,新线正在打造该剧前传电影[纽瓦克圣人](The Many Saints of Newark,暂译)。原剧编剧兼监制大卫·切斯及编剧劳伦斯·康纳尔操刀新片剧本,大卫·切斯任制片。影片故事布景设定在上世纪60年月纽瓦克暴力活动疯狂地带,黑帮争斗频发。该剧于1999年至2007年播出,共六季,获21项艾美奖、5项金球奖。原剧主演詹姆斯·甘多菲尼、弗兰克·文森特相继于2013年、客岁归天。据悉原剧中多个粉丝熟悉的形象将现身大银幕。
  1. Video
  2. ID                                       : 1
  3. Format                                   : HEVC
  4. Format/Info                              : High Efficiency Video Coding
  5. Format profile                           : Main [email protected]@Main
  6. HDR format                               : SMPTE ST 2086, HDR10 compatible
  7. Codec ID                                 : V_MPEGH/ISO/HEVC
  8. Duration                                 : 2 h 0 min
  9. Bit rate                                 : 8 016 kb/s
  10. Width                                    : 3 840 pixels
  11. Height                                   : 1 608 pixels
  12. Display aspect ratio                     : 2.40:1
  13. Frame rate mode                          : Constant
  14. Frame rate                               : 23.976 (24000/1001) FPS
  15. Color space                              : YUV
  16. Chroma subsampling                       : 4:2:0
  17. Bit depth                                : 10 bits
  18. Bits/(Pixel*Frame)                       : 0.054
  19. Stream size                              : 6.73 GiB (69%)
  20. Writing library                          : x265 3.5+rarbg-HDR-38-20255e6:[Linux][clang 16.0.0][64 bit] 10bit
  21. Encoding settings                        : cpuid=1111039 / frame-threads=6 / wpp / no-pmode / no-pme / no-psnr / no-ssim / log-level=2 / input-csp=1 / input-res=3840x1608 / interlace=0 / total-frames=0 / level-idc=51 / high-tier=1 / uhd-bd=0 / ref=4 / no-allow-non-conformance / repeat-headers / annexb / aud / no-eob / no-eos / no-hrd / info / hash=0 / no-temporal-layers / no-open-gop / min-keyint=1 / keyint=24 / gop-lookahead=0 / bframes=4 / b-adapt=2 / b-pyramid / bframe-bias=0 / rc-lookahead=25 / lookahead-slices=4 / scenecut=40 / no-hist-scenecut / radl=0 / no-splice / no-intra-refresh / ctu=64 / min-cu-size=8 / rect / no-amp / max-tu-size=32 / tu-inter-depth=1 / tu-intra-depth=1 / limit-tu=0 / rdoq-level=2 / dynamic-rd=0.00 / no-ssim-rd / signhide / no-tskip / nr-intra=0 / nr-inter=0 / no-constrained-intra / strong-intra-smoothing / max-merge=3 / limit-refs=3 / no-limit-modes / me=3 / subme=3 / merange=57 / temporal-mvp / no-frame-dup / no-hme / weightp / no-weightb / no-analyze-src-pics / deblock=0:0 / no-sao / no-sao-non-deblock / rd=4 / selective-sao=0 / no-early-skip / rskip / no-fast-intra / no-tskip-fast / no-cu-lossless / no-b-intra / no-splitrd-skip / rdpenalty=0 / psy-rd=2.00 / psy-rdoq=1.00 / no-rd-refine / no-lossless / cbqpoffs=0 / crqpoffs=0 / rc=abr / bitrate=8000 / qcomp=0.60 / qpstep=4 / stats-write=0 / stats-read=2 / cplxblur=20.0 / qblur=0.5 / ipratio=1.40 / pbratio=1.30 / aq-mode=1 / aq-strength=1.00 / cutree / zone-count=0 / no-strict-cbr / qg-size=32 / no-rc-grain / qpmax=69 / qpmin=0 / no-const-vbv / sar=1 / overscan=0 / videoformat=5 / range=0 / colorprim=9 / transfer=16 / colormatrix=9 / chromaloc=0 / display-window=0 / master-display=G(13250,34500)B(7500,3000)R(34000,16000)WP(15635,16450)L(10000000,1) / cll=258,56 / min-luma=0 / max-luma=1023 / log2-max-poc-lsb=8 / vui-timing-info / vui-hrd-info / slices=1 / no-opt-qp-pps / no-opt-ref-list-length-pps / no-multi-pass-opt-rps / scenecut-bias=0.05 / hist-threshold=0.03 / no-opt-cu-delta-qp / no-aq-motion / hdr10 / hdr10-opt / no-dhdr10-opt / no-idr-recovery-sei / analysis-reuse-level=0 / analysis-save-reuse-level=0 / analysis-load-reuse-level=0 / scale-factor=0 / refine-intra=0 / refine-inter=0 / refine-mv=1 / refine-ctu-distortion=0 / no-limit-sao / ctu-info=0 / no-lowpass-dct / refine-analysis-type=0 / copy-pic=1 / max-ausize-factor=1.0 / no-dynamic-refine / no-single-sei / no-hevc-aq / no-svt / no-field / qp-adaptation-range=1.00 / scenecut-aware-qp=0conformance-window-offsets / right=0 / bottom=0 / decoder-max-rate=0 / no-vbv-live-multi-pass
  22. Default                                  : Yes
  23. Forced                                   : No
  24. Color range                              : Limited
  25. Color primaries                          : BT.2020
  26. Transfer characteristics                 : PQ
  27. Matrix coefficients                      : BT.2020 non-constant
  28. Mastering display color primaries        : Display P3
  29. Mastering display luminance              : min: 0.0001 cd/m2, max: 1000 cd/m2
  30. Maximum Content Light Level              : 258 cd/m2
  31. Maximum Frame-Average Light Level        : 56 cd/m2
  32. Audio #1
  33. ID                                       : 2
  34. Format                                   : MLP FBA 16-ch
  35. Format/Info                              : Meridian Lossless Packing FBA with 16-channel presentation
  36. Commercial name                          : Dolby TrueHD with Dolby Atmos
  37. Codec ID                                 : A_TRUEHD
  38. Duration                                 : 2 h 0 min
  39. Bit rate mode                            : Variable
  40. Bit rate                                 : 3 136 kb/s
  41. Maximum bit rate                         : 5 766 kb/s
  42. Channel(s)                               : 8 channels
  43. Channel layout                           : L R C LFE Ls Rs Lb Rb
  44. Sampling rate                            : 48.0 kHz
  45. Frame rate                               : 1 200.000 FPS (40 SPF)
  46. Compression mode                         : Lossless
  47. Stream size                              : 2.63 GiB (27%)
  48. Title                                    : English TrueHD Atmos 7.1
  49. Language                                 : English
  50. Default                                  : Yes
  51. Forced                                   : No
  52. Number of dynamic objects                : 11
  53. Bed channel count                        : 1 channel
  54. Bed channel configuration                : LFE
  55. Audio #2
  56. ID                                       : 3
  57. Format                                   : AC-3
  58. Format/Info                              : Audio Coding 3
  59. Commercial name                          : Dolby Digital
  60. Codec ID                                 : A_AC3
  61. Duration                                 : 2 h 0 min
  62. Bit rate mode                            : Constant
  63. Bit rate                                 : 384 kb/s
  64. Channel(s)                               : 6 channels
  65. Channel layout                           : L R C LFE Ls Rs
  66. Sampling rate                            : 48.0 kHz
  67. Frame rate                               : 31.250 FPS (1536 SPF)
  68. Compression mode                         : Lossy
  69. Stream size                              : 330 MiB (3%)
  70. Title                                    : English DD 5.1
  71. Language                                 : English
  72. Service kind                             : Complete Main
  73. Default                                  : No
  74. Forced                                   : No
  75. Text #1
  76. ID                                       : 4
  77. Format                                   : UTF-8
  78. Codec ID                                 : S_TEXT/UTF8
  79. Codec ID/Info                            : UTF-8 Plain Text
  80. Duration                                 : 1 h 54 min
  81. Bit rate                                 : 57 b/s
  82. Frame rate                               : 0.206 FPS
  83. Count of elements                        : 1412
  84. Stream size                              : 48.2 KiB (0%)
  85. Title                                    : English SRT
  86. Language                                 : English
  87. Default                                  : Yes
  88. Forced                                   : No
  89. Text #2
  90. ID                                       : 5
  91. Format                                   : UTF-8
  92. Codec ID                                 : S_TEXT/UTF8
  93. Codec ID/Info                            : UTF-8 Plain Text
  94. Duration                                 : 1 h 55 min
  95. Bit rate                                 : 68 b/s
  96. Frame rate                               : 0.247 FPS
  97. Count of elements                        : 1718
  98. Stream size                              : 58.2 KiB (0%)
  99. Title                                    : English SDH SRT
  100. Language                                 : English
  101. Default                                  : No
  102. Forced                                   : No
  103. Menu
  104. 00:00:00.000                             : en:Chapter 01
  105. 00:11:54.213                             : en:Chapter 02
  106. 00:21:18.235                             : en:Chapter 03
  107. 00:31:28.720                             : en:Chapter 04
  108. 00:40:19.291                             : en:Chapter 05
  109. 00:50:07.546                             : en:Chapter 06
  110. 01:00:41.346                             : en:Chapter 07
  111. 01:10:19.590                             : en:Chapter 08
  112. 01:19:52.120                             : en:Chapter 09
  113. 01:30:13.199                             : en:Chapter 10
  114. 01:39:26.251                             : en:Chapter 11
  115. 01:47:53.216                             : en:Chapter 12
  116. 01:54:00.291                             : en:Chapter 13
复制代码











回复

使用道具 举报

懒得打字嘛,点击右侧快捷回复 【右侧内容,后台自定义】
您需要登录后才可以回帖 登录 | 立即加入

本版积分规则

Archiver|小黑屋| 蓝光电影网 |网站地图

Copyright © 2021 Comsenz Inc. Powered by 蓝光电影网

蓝光电影网

本站内容由用户自主分享和转载自互联网,转载目的在于传递更多信息,并不代表本网赞同其观点和对其真实性负责。

如有侵权、违反国家法律政策行为,请联系我们,我们会第一时间及时清除和处理!

举报反馈邮箱:[email protected]

快速回复 返回顶部 返回列表