找回密码

蓝光电影网

查看: 38|回复: 2

[2160p] Soho区惊魂夜.Last.Night.in.Soho.2021.2160p.UHD.BluRay.x265.10bit.HDR.DDP5.1.Atmos-RARBG 7.15GB

[复制链接]
蓝光币
1080
发表于 2023-1-14 22:12:06 | 显示全部楼层 |阅读模式


◎标  题 Soho区惊魂夜
◎译  名 苏豪的最初一夜(港) / 迷离夜苏活(台) / Soho最初的夜晚(豆友译名)
◎片  名 Last Night in Soho
◎年  代 2021
◎产  地 英国
◎类  别 悬疑 / 可骇
◎语  言 英语
◎上映日期 2021-09-04(威尼斯电影节) / 2021-10-29(美国)
◎IMDb评分 7.1/10 (140491人评价)
◎IMDb链接 https://www.imdb.com/title/tt9639470/
◎豆瓣评分 6.8/10 (38004人评价)
◎豆瓣链接 https://movie.douban.com/subject/30447440/
◎片  长 116分钟
◎导  演 埃德加·赖特 Edgar Wright
◎编  剧 埃德加·赖特 Edgar Wright
       克里斯蒂·威尔逊-凯恩斯 Krysty Wilson-Cairns
◎演  员 托马辛·麦肯齐 Thomasin McKenzie
       安雅·泰勒-乔伊 Anya Taylor-Joy
       马特·史姑娘 Matt Smith
       黛安娜·里格 Diana Rigg
       丽塔·塔欣厄姆 Rita Tushingham
       迈克尔·阿乔 Michael Ajao
       特伦斯·斯坦普 Terence Stamp
       山姆·克拉弗林 Sam Claflin
       科林·梅斯 Colin Mace
       西诺薇·卡尔森 Synnove Karlsen
       洁西·梅·李 Jessie Mei Li
       卡西厄斯·纳尔逊 Kassius Nelson
       丽贝卡·哈罗德 Rebecca Harrod
       艾米·卡塞塔利 Aimee Cassettari
       宝琳·麦克林 Pauline McLynn
       乔什·扎雷 Josh Zaré
       伊丽莎白·贝林顿 Elizabeth Berrington
       詹姆斯·菲尔普斯 James Phelps
       奥利弗·菲尔普斯 Oliver Phelps
       保罗·布赖特威尔 Paul Brightwell
       威尔·罗杰斯 Will Rogers
       安德鲁·比克内尔 Andrew Bicknell
       亚当·索普 Adam Sopp
       迈克尔·米尔斯 Michael Mears
       玛格丽特·诺兰 Margaret Nolan
       卢克·霍普 Luke Hope
       迈克尔·吉普森 Michael Jibson
       莉莎·麦格里利斯 Lisa McGrillis
       艾尔·罗伯茨 Al Roberts
       德里克·李 Derek Lea
       Jacqui-Lee Pryce Jacqui-Lee Pryce
       尼克·欧文福特 Nick Owenford
       乔基姆·斯卡利 Joakim Skarli
       格林·安格尔 Glyn Angell
       金·查普曼 Kim Chapman
◎简  介
    艾露思(托马辛·麦肯齐 Thomasin McKenzie 饰)是本性纯真善良的村落女孩,渴望成为一位打扮设想师。凭仗着自己的尽力,她考上了位于伦敦的艺术学院,怀揣着对未来的期待和对胡想的希冀,她离此外居住在故乡的外婆,单独踏上了肄业之路。初来乍到,伦敦的一切在艾露思的眼里看来都是这样的新奇和时兴,但同时,复杂的人际关系和繁重的学业也给艾露思带来了庞大的压力。                                                                      没法顺应宿舍生活的艾露思租下了一间老旧可是舒适的单室间,哪晓得在这里的第一夜,她就在半梦半醒之间穿越回了60年月,而且相逢了一位名叫桑迪(安雅·泰勒-乔伊 Anya Taylor-Joy 饰)的女子。艾露思透过桑迪的眼睛目击了她是若何从一个才华横溢的女子一步一步出错成为妓女最初被杀戮的全进程。
  1. Video
  2. ID                                       : 1
  3. Format                                   : HEVC
  4. Format/Info                              : High Efficiency Video Coding
  5. Format profile                           : Main [email protected]@Main
  6. HDR format                               : SMPTE ST 2086, HDR10 compatible
  7. Codec ID                                 : V_MPEGH/ISO/HEVC
  8. Duration                                 : 1 h 56 min
  9. Bit rate                                 : 8 015 kb/s
  10. Width                                    : 3 840 pixels
  11. Height                                   : 1 608 pixels
  12. Display aspect ratio                     : 2.40:1
  13. Frame rate mode                          : Constant
  14. Frame rate                               : 23.976 (24000/1001) FPS
  15. Color space                              : YUV
  16. Chroma subsampling                       : 4:2:0
  17. Bit depth                                : 10 bits
  18. Bits/(Pixel*Frame)                       : 0.054
  19. Stream size                              : 6.52 GiB (91%)
  20. Writing library                          : x265 3.5+rarbg-HDR-38-20255e6:[Linux][clang 16.0.0][64 bit] 10bit
  21. Encoding settings                        : cpuid=1111039 / frame-threads=6 / wpp / no-pmode / no-pme / no-psnr / no-ssim / log-level=2 / input-csp=1 / input-res=3840x1608 / interlace=0 / total-frames=0 / level-idc=51 / high-tier=1 / uhd-bd=0 / ref=4 / no-allow-non-conformance / repeat-headers / annexb / aud / no-eob / no-eos / no-hrd / info / hash=0 / no-temporal-layers / no-open-gop / min-keyint=1 / keyint=24 / gop-lookahead=0 / bframes=4 / b-adapt=2 / b-pyramid / bframe-bias=0 / rc-lookahead=25 / lookahead-slices=4 / scenecut=40 / no-hist-scenecut / radl=0 / no-splice / no-intra-refresh / ctu=64 / min-cu-size=8 / rect / no-amp / max-tu-size=32 / tu-inter-depth=1 / tu-intra-depth=1 / limit-tu=0 / rdoq-level=2 / dynamic-rd=0.00 / no-ssim-rd / signhide / no-tskip / nr-intra=0 / nr-inter=0 / no-constrained-intra / strong-intra-smoothing / max-merge=3 / limit-refs=3 / no-limit-modes / me=3 / subme=3 / merange=57 / temporal-mvp / no-frame-dup / no-hme / weightp / no-weightb / no-analyze-src-pics / deblock=0:0 / no-sao / no-sao-non-deblock / rd=4 / selective-sao=0 / no-early-skip / rskip / no-fast-intra / no-tskip-fast / no-cu-lossless / no-b-intra / no-splitrd-skip / rdpenalty=0 / psy-rd=2.00 / psy-rdoq=1.00 / no-rd-refine / no-lossless / cbqpoffs=0 / crqpoffs=0 / rc=abr / bitrate=8000 / qcomp=0.60 / qpstep=4 / stats-write=0 / stats-read=2 / cplxblur=20.0 / qblur=0.5 / ipratio=1.40 / pbratio=1.30 / aq-mode=1 / aq-strength=1.00 / cutree / zone-count=0 / no-strict-cbr / qg-size=32 / no-rc-grain / qpmax=69 / qpmin=0 / no-const-vbv / sar=1 / overscan=0 / videoformat=5 / range=0 / colorprim=9 / transfer=16 / colormatrix=9 / chromaloc=0 / display-window=0 / master-display=G(13250,34500)B(7500,3000)R(34000,16000)WP(15635,16450)L(10000000,1) / cll=997,81 / min-luma=0 / max-luma=1023 / log2-max-poc-lsb=8 / vui-timing-info / vui-hrd-info / slices=1 / no-opt-qp-pps / no-opt-ref-list-length-pps / no-multi-pass-opt-rps / scenecut-bias=0.05 / hist-threshold=0.03 / no-opt-cu-delta-qp / no-aq-motion / hdr10 / hdr10-opt / no-dhdr10-opt / no-idr-recovery-sei / analysis-reuse-level=0 / analysis-save-reuse-level=0 / analysis-load-reuse-level=0 / scale-factor=0 / refine-intra=0 / refine-inter=0 / refine-mv=1 / refine-ctu-distortion=0 / no-limit-sao / ctu-info=0 / no-lowpass-dct / refine-analysis-type=0 / copy-pic=1 / max-ausize-factor=1.0 / no-dynamic-refine / no-single-sei / no-hevc-aq / no-svt / no-field / qp-adaptation-range=1.00 / scenecut-aware-qp=0conformance-window-offsets / right=0 / bottom=0 / decoder-max-rate=0 / no-vbv-live-multi-pass
  22. Default                                  : Yes
  23. Forced                                   : No
  24. Color range                              : Limited
  25. Color primaries                          : BT.2020
  26. Transfer characteristics                 : PQ
  27. Matrix coefficients                      : BT.2020 non-constant
  28. Mastering display color primaries        : Display P3
  29. Mastering display luminance              : min: 0.0001 cd/m2, max: 1000 cd/m2
  30. Maximum Content Light Level              : 997 cd/m2
  31. Maximum Frame-Average Light Level        : 81 cd/m2
  32. Audio
  33. ID                                       : 2
  34. Format                                   : E-AC-3 JOC
  35. Format/Info                              : Enhanced AC-3 with Joint Object Coding
  36. Commercial name                          : Dolby Digital Plus with Dolby Atmos
  37. Codec ID                                 : A_EAC3
  38. Duration                                 : 1 h 56 min
  39. Bit rate mode                            : Constant
  40. Bit rate                                 : 768 kb/s
  41. Channel(s)                               : 6 channels
  42. Channel layout                           : L R C LFE Ls Rs
  43. Sampling rate                            : 48.0 kHz
  44. Frame rate                               : 31.250 FPS (1536 SPF)
  45. Compression mode                         : Lossy
  46. Delay relative to video                  : 8 ms
  47. Stream size                              : 641 MiB (9%)
  48. Title                                    : English DDP Atmos 5.1
  49. Language                                 : English
  50. Service kind                             : Complete Main
  51. Default                                  : Yes
  52. Forced                                   : No
  53. Complexity index                         : 16
  54. Number of dynamic objects                : 15
  55. Bed channel count                        : 1 channel
  56. Bed channel configuration                : LFE
  57. Text #1
  58. ID                                       : 3
  59. Format                                   : UTF-8
  60. Codec ID                                 : S_TEXT/UTF8
  61. Codec ID/Info                            : UTF-8 Plain Text
  62. Duration                                 : 1 h 55 min
  63. Bit rate                                 : 55 b/s
  64. Frame rate                               : 0.262 FPS
  65. Count of elements                        : 1809
  66. Stream size                              : 47.1 KiB (0%)
  67. Title                                    : English SRT
  68. Language                                 : English
  69. Default                                  : Yes
  70. Forced                                   : No
  71. Text #2
  72. ID                                       : 4
  73. Format                                   : UTF-8
  74. Codec ID                                 : S_TEXT/UTF8
  75. Codec ID/Info                            : UTF-8 Plain Text
  76. Duration                                 : 1 h 56 min
  77. Bit rate                                 : 62 b/s
  78. Frame rate                               : 0.297 FPS
  79. Count of elements                        : 2073
  80. Stream size                              : 53.4 KiB (0%)
  81. Title                                    : English SDH SRT
  82. Language                                 : English
  83. Default                                  : No
  84. Forced                                   : No
  85. Menu
  86. 00:00:00.000                             : en:Chapter 01
  87. 00:06:08.076                             : en:Chapter 02
  88. 00:13:28.015                             : en:Chapter 03
  89. 00:17:58.410                             : en:Chapter 04
  90. 00:22:24.509                             : en:Chapter 05
  91. 00:26:44.185                             : en:Chapter 06
  92. 00:33:47.650                             : en:Chapter 07
  93. 00:40:02.566                             : en:Chapter 08
  94. 00:44:41.011                             : en:Chapter 09
  95. 00:51:25.082                             : en:Chapter 10
  96. 00:57:21.813                             : en:Chapter 11
  97. 01:03:52.912                             : en:Chapter 12
  98. 01:09:08.144                             : en:Chapter 13
  99. 01:14:40.851                             : en:Chapter 14
  100. 01:20:37.666                             : en:Chapter 15
  101. 01:26:46.075                             : en:Chapter 16
  102. 01:34:00.926                             : en:Chapter 17
  103. 01:41:23.911                             : en:Chapter 18
  104. 01:49:58.800                             : en:Chapter 19
  105. 01:52:18.022                             : en:Chapter 20
复制代码











回复

使用道具 举报

蓝光币
120
发表于 2023-1-16 08:51:31 | 显示全部楼层

楼主太厉害了!楼主,电影应该很好看我觉得蓝光电影网真是个好地方!
回复 支持 反对

使用道具 举报

蓝光币
278
发表于 2023-1-16 09:24:35 | 显示全部楼层
谢谢分享好资源
回复 支持 反对

使用道具 举报

懒得打字嘛,点击右侧快捷回复 【右侧内容,后台自定义】
您需要登录后才可以回帖 登录 | 立即加入

本版积分规则

Archiver|小黑屋| 蓝光电影网 |网站地图

Copyright © 2021 Comsenz Inc. Powered by 蓝光电影网

蓝光电影网

本站内容由用户自主分享和转载自互联网,转载目的在于传递更多信息,并不代表本网赞同其观点和对其真实性负责。

如有侵权、违反国家法律政策行为,请联系我们,我们会第一时间及时清除和处理!

举报反馈邮箱:[email protected]

快速回复 返回顶部 返回列表