找回密码

蓝光电影网

查看: 80|回复: 2

[2160p] 国王理查德.King.Richard.2021.2160p.UHD.BluRay.x265.10bit.HDR.DDP5.1.Atmos-RARBG 8.88GB

[复制链接]
蓝光币
1084
发表于 2023-1-14 22:12:12 | 显示全部楼层 |阅读模式


◎标  题 国王理查德
◎译  名 王者世家(港) / 王者理查(台) / 王者理查德
◎片  名 King Richard
◎年  代 2021
◎产  地 美国
◎类  别 剧情 / 列传 / 活动
◎语  言 英语
◎上映日期 2021-09-02(特柳赖德电影节) / 2021-11-19(美国)
◎IMDb评分 7.5/10 (115681人评价)
◎IMDb链接 https://www.imdb.com/title/tt9620288/
◎豆瓣评分 7.4/10 (28160人评价)
◎豆瓣链接 https://movie.douban.com/subject/30481476/
◎片  长 144分钟
◎导  演 雷纳尔多·马库斯·格林 Reinaldo Marcus Green
◎编  剧 扎克·贝林 Zach Baylin
◎演  员 威尔·史姑娘 Will Smith
       黛米·辛格顿 Demi Singleton
       萨尼雅·西德尼 Saniyya Sidney
       安洁纽·艾莉丝 Aunjanue Ellis
       乔·博恩瑟 Jon Bernthal
       托尼·戈德温 Tony Goldwyn
       米凯拉·拉沙·巴塞洛缪 Mikayla Lashae Bartholomew
       达尼埃莱·劳森 Daniele Lawson
       莱拉·克劳福德 Layla Crawford
       埃里卡·林格 Erika Ringor
       诺亚·比恩 Noah Bean
       克雷格·泰特 Craig Tate
       乔赛亚·克罗斯  Josiah Cross
       小卡尔文·克劳塞尔 Calvin Clausell Jr.
       沃恩·W·希伯伦
       小吉米·沃克 Jimmy Walker Jr.
       凯文·杜恩 Kevin Dunn
       布拉德·格林奎斯特 Brad Greenquist
       布兰顿·莫拉莱斯 Brandon Morales
       爱丽珂谢弗 Erica Shaffer
       安迪·比恩 Andy Bean
       朱迪思•查普曼 Judith Chapman
       切特·格里索姆 Chet Grissom
       乔纳森·贝莱 Jonathan Bray
       卡特里娜·贝恩 Katrina Begin
       里奇·索莫 Rich Sommer
       艾琳·库明斯 Erin Cummings
       汤姆·德格南 Tom Degnan
       弗吉尼亚·施奈德 Virginia Schneider
       瓦莱丽·戴维森 Valerie Davidson
       汉娜·巴尔福特 Hannah Barefoot
       梅尔·法尔 Mel Fair
       玛丽·帕斯科 Mary Pascoe
       古纳尔·怀特 Gunner Wright
       迪伦·麦克德莫特 Dylan McDermott
       苏西·阿布罗梅特 Susie Abromeit
       索菲亚·布伊 Sophia Bui
       约翰尼·曼斯巴赫 Johnny Mansbach
       凯蒂·麦克凯布 Katie McCabe
       丹·萨霍夫 Dan Sachoff
       列维·施瑞博尔 Liev Schreiber
◎简  介
    该片剧本排2018年好莱坞“剧本黑名单”第二,报告理查德·威廉姆斯的实在故事,这位精明务实、不平不挠、没有任何网球布景的父亲培育 出了两个网球天赋,她们后来成了超级巨星——维纳斯·威廉姆斯和塞雷娜·威廉姆斯(大威小威)。                                                                      理查德·威廉姆斯为女儿们的职业网球生活起草了一份78页的计划,女孩们在康普顿陈旧、杂草丛生的公共球场上学会了这项活动。据报道,在那之前,她们的父亲与一些不喜好这项活动、不愿让位的年轻硬汉发生了争论。威廉姆斯姐妹后来成为了网球史上最巨大的女选手之二。
  1. Video
  2. ID                                       : 1
  3. Format                                   : HEVC
  4. Format/Info                              : High Efficiency Video Coding
  5. Format profile                           : Main [email protected]@Main
  6. HDR format                               : SMPTE ST 2086, HDR10 compatible
  7. Codec ID                                 : V_MPEGH/ISO/HEVC
  8. Duration                                 : 2 h 24 min
  9. Bit rate                                 : 8 020 kb/s
  10. Width                                    : 3 840 pixels
  11. Height                                   : 1 608 pixels
  12. Display aspect ratio                     : 2.40:1
  13. Frame rate mode                          : Constant
  14. Frame rate                               : 23.976 (24000/1001) FPS
  15. Color space                              : YUV
  16. Chroma subsampling                       : 4:2:0
  17. Bit depth                                : 10 bits
  18. Bits/(Pixel*Frame)                       : 0.054
  19. Stream size                              : 8.10 GiB (91%)
  20. Writing library                          : x265 3.5+rarbg-HDR-38-20255e6:[Linux][clang 16.0.0][64 bit] 10bit
  21. Encoding settings                        : cpuid=1111039 / frame-threads=6 / wpp / no-pmode / no-pme / no-psnr / no-ssim / log-level=2 / input-csp=1 / input-res=3840x1608 / interlace=0 / total-frames=0 / level-idc=51 / high-tier=1 / uhd-bd=0 / ref=4 / no-allow-non-conformance / repeat-headers / annexb / aud / no-eob / no-eos / no-hrd / info / hash=0 / no-temporal-layers / no-open-gop / min-keyint=1 / keyint=24 / gop-lookahead=0 / bframes=4 / b-adapt=2 / b-pyramid / bframe-bias=0 / rc-lookahead=25 / lookahead-slices=4 / scenecut=40 / no-hist-scenecut / radl=0 / no-splice / no-intra-refresh / ctu=64 / min-cu-size=8 / rect / no-amp / max-tu-size=32 / tu-inter-depth=1 / tu-intra-depth=1 / limit-tu=0 / rdoq-level=2 / dynamic-rd=0.00 / no-ssim-rd / signhide / no-tskip / nr-intra=0 / nr-inter=0 / no-constrained-intra / strong-intra-smoothing / max-merge=3 / limit-refs=3 / no-limit-modes / me=3 / subme=3 / merange=57 / temporal-mvp / no-frame-dup / no-hme / weightp / no-weightb / no-analyze-src-pics / deblock=0:0 / no-sao / no-sao-non-deblock / rd=4 / selective-sao=0 / no-early-skip / rskip / no-fast-intra / no-tskip-fast / no-cu-lossless / no-b-intra / no-splitrd-skip / rdpenalty=0 / psy-rd=2.00 / psy-rdoq=1.00 / no-rd-refine / no-lossless / cbqpoffs=0 / crqpoffs=0 / rc=abr / bitrate=8000 / qcomp=0.60 / qpstep=4 / stats-write=0 / stats-read=2 / cplxblur=20.0 / qblur=0.5 / ipratio=1.40 / pbratio=1.30 / aq-mode=1 / aq-strength=1.00 / cutree / zone-count=0 / no-strict-cbr / qg-size=32 / no-rc-grain / qpmax=69 / qpmin=0 / no-const-vbv / sar=1 / overscan=0 / videoformat=5 / range=0 / colorprim=9 / transfer=16 / colormatrix=9 / chromaloc=0 / display-window=0 / master-display=G(13250,34500)B(7500,3000)R(34000,16000)WP(15635,16450)L(10000000,1) / cll=279,38 / min-luma=0 / max-luma=1023 / log2-max-poc-lsb=8 / vui-timing-info / vui-hrd-info / slices=1 / no-opt-qp-pps / no-opt-ref-list-length-pps / no-multi-pass-opt-rps / scenecut-bias=0.05 / hist-threshold=0.03 / no-opt-cu-delta-qp / no-aq-motion / hdr10 / hdr10-opt / no-dhdr10-opt / no-idr-recovery-sei / analysis-reuse-level=0 / analysis-save-reuse-level=0 / analysis-load-reuse-level=0 / scale-factor=0 / refine-intra=0 / refine-inter=0 / refine-mv=1 / refine-ctu-distortion=0 / no-limit-sao / ctu-info=0 / no-lowpass-dct / refine-analysis-type=0 / copy-pic=1 / max-ausize-factor=1.0 / no-dynamic-refine / no-single-sei / no-hevc-aq / no-svt / no-field / qp-adaptation-range=1.00 / scenecut-aware-qp=0conformance-window-offsets / right=0 / bottom=0 / decoder-max-rate=0 / no-vbv-live-multi-pass
  22. Default                                  : Yes
  23. Forced                                   : No
  24. Color range                              : Limited
  25. Color primaries                          : BT.2020
  26. Transfer characteristics                 : PQ
  27. Matrix coefficients                      : BT.2020 non-constant
  28. Mastering display color primaries        : Display P3
  29. Mastering display luminance              : min: 0.0001 cd/m2, max: 1000 cd/m2
  30. Maximum Content Light Level              : 279 cd/m2
  31. Maximum Frame-Average Light Level        : 38 cd/m2
  32. Audio
  33. ID                                       : 2
  34. Format                                   : E-AC-3 JOC
  35. Format/Info                              : Enhanced AC-3 with Joint Object Coding
  36. Commercial name                          : Dolby Digital Plus with Dolby Atmos
  37. Codec ID                                 : A_EAC3
  38. Duration                                 : 2 h 24 min
  39. Bit rate mode                            : Constant
  40. Bit rate                                 : 768 kb/s
  41. Channel(s)                               : 6 channels
  42. Channel layout                           : L R C LFE Ls Rs
  43. Sampling rate                            : 48.0 kHz
  44. Frame rate                               : 31.250 FPS (1536 SPF)
  45. Compression mode                         : Lossy
  46. Stream size                              : 795 MiB (9%)
  47. Title                                    : English DDP Atmos 5.1
  48. Language                                 : English
  49. Service kind                             : Complete Main
  50. Default                                  : Yes
  51. Forced                                   : No
  52. Complexity index                         : 16
  53. Number of dynamic objects                : 15
  54. Bed channel count                        : 1 channel
  55. Bed channel configuration                : LFE
  56. Text #1
  57. ID                                       : 3
  58. Format                                   : UTF-8
  59. Codec ID                                 : S_TEXT/UTF8
  60. Codec ID/Info                            : UTF-8 Plain Text
  61. Duration                                 : 2 h 19 min
  62. Bit rate                                 : 82 b/s
  63. Frame rate                               : 0.252 FPS
  64. Count of elements                        : 2113
  65. Stream size                              : 84.2 KiB (0%)
  66. Title                                    : English SRT
  67. Language                                 : English
  68. Default                                  : Yes
  69. Forced                                   : No
  70. Text #2
  71. ID                                       : 4
  72. Format                                   : UTF-8
  73. Codec ID                                 : S_TEXT/UTF8
  74. Codec ID/Info                            : UTF-8 Plain Text
  75. Duration                                 : 2 h 19 min
  76. Bit rate                                 : 93 b/s
  77. Frame rate                               : 0.282 FPS
  78. Count of elements                        : 2360
  79. Stream size                              : 95.3 KiB (0%)
  80. Title                                    : English SDH SRT
  81. Language                                 : English
  82. Default                                  : No
  83. Forced                                   : No
  84. Menu
  85. 00:00:00.000                             : en:Chapter 01
  86. 00:10:36.886                             : en:Chapter 02
  87. 00:20:04.077                             : en:Chapter 03
  88. 00:28:38.717                             : en:Chapter 04
  89. 00:40:24.130                             : en:Chapter 05
  90. 00:50:42.664                             : en:Chapter 06
  91. 00:58:19.579                             : en:Chapter 07
  92. 01:10:56.502                             : en:Chapter 08
  93. 01:19:14.666                             : en:Chapter 09
  94. 01:29:03.379                             : en:Chapter 10
  95. 01:40:26.186                             : en:Chapter 11
  96. 01:50:23.241                             : en:Chapter 12
  97. 01:59:11.185                             : en:Chapter 13
  98. 02:11:52.779                             : en:Chapter 14
  99. 02:17:17.562                             : en:Chapter 15
复制代码











回复

使用道具 举报

蓝光币
212
发表于 2023-1-15 22:44:25 | 显示全部楼层
楼主发贴辛苦了,谢谢楼主分享!我觉得蓝光电影网是注册对了!
回复 支持 反对

使用道具 举报

蓝光币
1
发表于 2023-1-15 22:55:48 | 显示全部楼层
感谢分享!!!!
回复

使用道具 举报

懒得打字嘛,点击右侧快捷回复 【右侧内容,后台自定义】
您需要登录后才可以回帖 登录 | 立即加入

本版积分规则

Archiver|小黑屋| 蓝光电影网 |网站地图

Copyright © 2021 Comsenz Inc. Powered by 蓝光电影网

蓝光电影网

本站内容由用户自主分享和转载自互联网,转载目的在于传递更多信息,并不代表本网赞同其观点和对其真实性负责。

如有侵权、违反国家法律政策行为,请联系我们,我们会第一时间及时清除和处理!

举报反馈邮箱:[email protected]

快速回复 返回顶部 返回列表