找回密码

蓝光电影网

查看: 59|回复: 2

[2160p] 死亡占卜.Ouija.2014.2160p.UHD.BluRay.x265.10bit.HDR.DDP5.1-RARBG 5.41GB

[复制链接]
蓝光币
1082
发表于 2023-1-14 22:12:15 | 显示全部楼层 |阅读模式


◎标  题 灭亡占卜
◎译  名 灭亡占卜(港) / 美版通灵 / 通灵
◎片  名 Ouija
◎年  代 2014
◎产  地 美国
◎类  别 行动 / 惊悚 / 可骇 / 冒险
◎语  言 英语
◎上映日期 2014-10-24(美国)
◎IMDb评分 4.5/10 (53801人评价)
◎IMDb链接 https://www.imdb.com/title/tt1204977/
◎豆瓣评分 5.6/10 (5623人评价)
◎豆瓣链接 https://movie.douban.com/subject/3014399/
◎片  长 89分钟
◎导  演 斯蒂尔斯·怀特 Stiles White
◎编  剧 亚当·霍罗威茨 Adam Horowitz
       爱德华·基齐斯 Edward Kitsis
       朱丽叶·斯诺登 Juliet Snowden
◎演  员 奥利维亚·库克 Olivia Cooke
       安娜·科托 Ana Coto
       达伦·卡加索夫 Daren Kagasoff
       比安卡·A·桑托斯 Bianca A. Santos
       道格拉斯·史姑娘 Douglas Smith
       雪莱·亨尼格 Shelley Hennig
       桑尼·梅·艾利森 Sunny May Allison
       林·沙烨 Lin Shaye
       克劳迪娅·卡茨 Claudia Katz
       罗宾·莱弗里 Robyn Lively
       马修·塞特尔 Matthew Settle
       维维斯·科隆贝蒂 Vivis Colombetti
       丹尼斯·奎德 Dennis Quaid
       Alex Williams Alex Williams
       塞拉·希乌尔曼 Sierra Heuermann
       克劳迪娅·卡茨 Claudia Katz
       海伦·亨特 Helen Hunt
◎简  介
    莱妮(奥利维亚·库克 Olivia Cooke 饰)和黛比(雪莱·亨尼格 Shelley Hennig 饰)是一对从小玩到大的好朋友,谁知在某个毫无征象的夜晚,黛比忽然上吊自杀,这起变故给了莱妮极为沉痛的冲击。她决然不相信好友会挑选如此残暴的方式分开,在多方调盘询问无果后,莱妮召集了妹妹萨拉(安娜·科托 Ana Coto 饰)以及伊莎贝尔(比安卡·A·桑托斯 Bianca A. Santos 饰)、特里弗(达伦·卡加索夫 Daren Kagasoff 饰)、皮特(道格拉斯·史姑娘 Douglas Smith 饰)等好友,用她和黛比小时辰最常玩的通灵板,试图呼唤黛比问清死因。                                                                      阴晦的房间里,他们的询问获得回应,而可骇的噩梦似乎就此起头……
  1. Video
  2. ID                                       : 1
  3. Format                                   : HEVC
  4. Format/Info                              : High Efficiency Video Coding
  5. Format profile                           : Main [email protected]@Main
  6. HDR format                               : SMPTE ST 2086, HDR10 compatible
  7. Codec ID                                 : V_MPEGH/ISO/HEVC
  8. Duration                                 : 1 h 29 min
  9. Bit rate                                 : 8 024 kb/s
  10. Width                                    : 3 840 pixels
  11. Height                                   : 1 600 pixels
  12. Display aspect ratio                     : 2.40:1
  13. Frame rate mode                          : Constant
  14. Frame rate                               : 23.976 (24000/1001) FPS
  15. Color space                              : YUV
  16. Chroma subsampling                       : 4:2:0
  17. Bit depth                                : 10 bits
  18. Bits/(Pixel*Frame)                       : 0.054
  19. Stream size                              : 5.01 GiB (93%)
  20. Writing library                          : x265 3.5+rarbg-HDR-38-20255e6:[Linux][clang 16.0.0][64 bit] 10bit
  21. Encoding settings                        : cpuid=1111039 / frame-threads=6 / wpp / no-pmode / no-pme / no-psnr / no-ssim / log-level=2 / input-csp=1 / input-res=3840x1600 / interlace=0 / total-frames=0 / level-idc=51 / high-tier=1 / uhd-bd=0 / ref=4 / no-allow-non-conformance / repeat-headers / annexb / aud / no-eob / no-eos / no-hrd / info / hash=0 / no-temporal-layers / no-open-gop / min-keyint=1 / keyint=24 / gop-lookahead=0 / bframes=4 / b-adapt=2 / b-pyramid / bframe-bias=0 / rc-lookahead=25 / lookahead-slices=4 / scenecut=40 / no-hist-scenecut / radl=0 / no-splice / no-intra-refresh / ctu=64 / min-cu-size=8 / rect / no-amp / max-tu-size=32 / tu-inter-depth=1 / tu-intra-depth=1 / limit-tu=0 / rdoq-level=2 / dynamic-rd=0.00 / no-ssim-rd / signhide / no-tskip / nr-intra=0 / nr-inter=0 / no-constrained-intra / strong-intra-smoothing / max-merge=3 / limit-refs=3 / no-limit-modes / me=3 / subme=3 / merange=57 / temporal-mvp / no-frame-dup / no-hme / weightp / no-weightb / no-analyze-src-pics / deblock=0:0 / no-sao / no-sao-non-deblock / rd=4 / selective-sao=0 / no-early-skip / rskip / no-fast-intra / no-tskip-fast / no-cu-lossless / no-b-intra / no-splitrd-skip / rdpenalty=0 / psy-rd=2.00 / psy-rdoq=1.00 / no-rd-refine / no-lossless / cbqpoffs=0 / crqpoffs=0 / rc=abr / bitrate=8000 / qcomp=0.60 / qpstep=4 / stats-write=0 / stats-read=2 / cplxblur=20.0 / qblur=0.5 / ipratio=1.40 / pbratio=1.30 / aq-mode=1 / aq-strength=1.00 / cutree / zone-count=0 / no-strict-cbr / qg-size=32 / no-rc-grain / qpmax=69 / qpmin=0 / no-const-vbv / sar=1 / overscan=0 / videoformat=5 / range=0 / colorprim=9 / transfer=16 / colormatrix=9 / chromaloc=0 / display-window=0 / master-display=G(13250,34500)B(7500,3000)R(34000,16000)WP(15635,16450)L(40000000,50) / cll=723,65 / min-luma=0 / max-luma=1023 / log2-max-poc-lsb=8 / vui-timing-info / vui-hrd-info / slices=1 / no-opt-qp-pps / no-opt-ref-list-length-pps / no-multi-pass-opt-rps / scenecut-bias=0.05 / hist-threshold=0.03 / no-opt-cu-delta-qp / no-aq-motion / hdr10 / hdr10-opt / no-dhdr10-opt / no-idr-recovery-sei / analysis-reuse-level=0 / analysis-save-reuse-level=0 / analysis-load-reuse-level=0 / scale-factor=0 / refine-intra=0 / refine-inter=0 / refine-mv=1 / refine-ctu-distortion=0 / no-limit-sao / ctu-info=0 / no-lowpass-dct / refine-analysis-type=0 / copy-pic=1 / max-ausize-factor=1.0 / no-dynamic-refine / no-single-sei / no-hevc-aq / no-svt / no-field / qp-adaptation-range=1.00 / scenecut-aware-qp=0conformance-window-offsets / right=0 / bottom=0 / decoder-max-rate=0 / no-vbv-live-multi-pass
  22. Default                                  : Yes
  23. Forced                                   : No
  24. Color range                              : Limited
  25. Color primaries                          : BT.2020
  26. Transfer characteristics                 : PQ
  27. Matrix coefficients                      : BT.2020 non-constant
  28. Mastering display color primaries        : Display P3
  29. Mastering display luminance              : min: 0.0050 cd/m2, max: 4000 cd/m2
  30. Maximum Content Light Level              : 723 cd/m2
  31. Maximum Frame-Average Light Level        : 65 cd/m2
  32. Audio
  33. ID                                       : 2
  34. Format                                   : E-AC-3
  35. Format/Info                              : Enhanced AC-3
  36. Commercial name                          : Dolby Digital Plus
  37. Codec ID                                 : A_EAC3
  38. Duration                                 : 1 h 29 min
  39. Bit rate mode                            : Constant
  40. Bit rate                                 : 640 kb/s
  41. Channel(s)                               : 6 channels
  42. Channel layout                           : L R C LFE Ls Rs
  43. Sampling rate                            : 48.0 kHz
  44. Frame rate                               : 31.250 FPS (1536 SPF)
  45. Compression mode                         : Lossy
  46. Stream size                              : 409 MiB (7%)
  47. Title                                    : English DDP 5.1
  48. Language                                 : English
  49. Service kind                             : Complete Main
  50. Default                                  : Yes
  51. Forced                                   : No
  52. Text #1
  53. ID                                       : 3
  54. Format                                   : UTF-8
  55. Codec ID                                 : S_TEXT/UTF8
  56. Codec ID/Info                            : UTF-8 Plain Text
  57. Duration                                 : 1 h 21 min
  58. Bit rate                                 : 38 b/s
  59. Frame rate                               : 0.151 FPS
  60. Count of elements                        : 740
  61. Stream size                              : 22.7 KiB (0%)
  62. Title                                    : English SRT
  63. Language                                 : English
  64. Default                                  : Yes
  65. Forced                                   : No
  66. Text #2
  67. ID                                       : 4
  68. Format                                   : UTF-8
  69. Codec ID                                 : S_TEXT/UTF8
  70. Codec ID/Info                            : UTF-8 Plain Text
  71. Duration                                 : 1 h 28 min
  72. Bit rate                                 : 47 b/s
  73. Frame rate                               : 0.205 FPS
  74. Count of elements                        : 1096
  75. Stream size                              : 30.7 KiB (0%)
  76. Title                                    : English SDH SRT
  77. Language                                 : English
  78. Default                                  : No
  79. Forced                                   : No
  80. Menu
  81. 00:00:00.000                             : en:Chapter 01
  82. 00:09:31.821                             : en:Chapter 02
  83. 00:16:28.028                             : en:Chapter 03
  84. 00:24:14.786                             : en:Chapter 04
  85. 00:32:12.055                             : en:Chapter 05
  86. 00:40:04.944                             : en:Chapter 06
  87. 00:49:29.591                             : en:Chapter 07
  88. 00:55:53.767                             : en:Chapter 08
  89. 01:02:25.450                             : en:Chapter 09
  90. 01:10:03.782                             : en:Chapter 10
  91. 01:15:25.270                             : en:Chapter 11
  92. 01:22:05.837                             : en:Chapter 12
  93. 01:29:23.316                             : en:Chapter 13
复制代码











回复

使用道具 举报

蓝光币
80
发表于 2023-1-15 16:46:58 | 显示全部楼层

既然你诚信诚意的推荐了,那我就勉为其难的看看吧!蓝光电影网不走平凡路。
回复 支持 反对

使用道具 举报

蓝光币
171
发表于 2023-1-15 21:56:25 | 显示全部楼层
蓝光电影网不走平凡路~
回复 支持 反对

使用道具 举报

懒得打字嘛,点击右侧快捷回复 【右侧内容,后台自定义】
您需要登录后才可以回帖 登录 | 立即加入

本版积分规则

Archiver|小黑屋| 蓝光电影网 |网站地图

Copyright © 2021 Comsenz Inc. Powered by 蓝光电影网

蓝光电影网

本站内容由用户自主分享和转载自互联网,转载目的在于传递更多信息,并不代表本网赞同其观点和对其真实性负责。

如有侵权、违反国家法律政策行为,请联系我们,我们会第一时间及时清除和处理!

举报反馈邮箱:[email protected]

快速回复 返回顶部 返回列表