找回密码

蓝光电影网

查看: 51|回复: 1

[恐怖] 鬼屋幽会.Those.Who.Walk.Away.2022.720p.BluRay.x264-GETiT 2.43GB

[复制链接]
蓝光币
1084
发表于 2023-1-14 22:19:48 | 显示全部楼层 |阅读模式


◎标  题 鬼屋幽会
◎译  名 那些分开的人哪
◎片  名 Those Who Walk Away
◎年  代 2022
◎产  地 美国
◎类  别 可骇
◎语  言 英语
◎上映日期 2022-02-11(美国)
◎IMDb评分 5.2/10 (5842人评价)
◎IMDb链接 https://www.imdb.com/title/tt12292206/
◎豆瓣链接 https://movie.douban.com/subject/35742037/
◎导  演  Robert Rippberger
◎编  剧  Robert Rippberger
◎演  员 波波·斯图尔特 BooBoo Stewart
       斯嘉丽·斯珀杜托 Scarlett Sperduto
◎简  介
    After Max and Avery meet on a social media app for a first date, they end up at a haunted house only to realize the trauma they share may either save them or erupt into an unforgettable nightmare.
  1. Video
  2. ID                                       : 1
  3. Format                                   : AVC
  4. Format/Info                              : Advanced Video Codec
  5. Format profile                           : [email protected]
  6. Format settings                          : CABAC / 8 Ref Frames
  7. Format settings, CABAC                   : Yes
  8. Format settings, Reference frames        : 8 frames
  9. Codec ID                                 : V_MPEG4/ISO/AVC
  10. Duration                                 : 1 h 34 min
  11. Bit rate                                 : 3 018 kb/s
  12. Width                                    : 1 280 pixels
  13. Height                                   : 534 pixels
  14. Display aspect ratio                     : 2.40:1
  15. Frame rate mode                          : Constant
  16. Frame rate                               : 23.976 (24000/1001) FPS
  17. Color space                              : YUV
  18. Chroma subsampling                       : 4:2:0
  19. Bit depth                                : 8 bits
  20. Scan type                                : Progressive
  21. Bits/(Pixel*Frame)                       : 0.184
  22. Stream size                              : 2.00 GiB (82%)
  23. Writing library                          : x264 core 164 r3103 941cae6
  24. Encoding settings                        : cabac=1 / ref=8 / deblock=1:-3:-3 / analyse=0x3:0x133 / me=umh / subme=9 / psy=1 / psy_rd=1.00:0.00 / mixed_ref=1 / me_range=16 / chroma_me=1 / trellis=2 / 8x8dct=1 / cqm=0 / deadzone=21,11 / fast_pskip=1 / chroma_qp_offset=-2 / threads=17 / lookahead_threads=1 / sliced_threads=0 / nr=0 / decimate=1 / interlaced=0 / bluray_compat=0 / constrained_intra=0 / bframes=3 / b_pyramid=2 / b_adapt=2 / b_bias=0 / direct=3 / weightb=1 / open_gop=0 / weightp=2 / keyint=250 / keyint_min=23 / scenecut=40 / intra_refresh=0 / rc_lookahead=60 / rc=crf / mbtree=1 / crf=17.0 / qcomp=0.60 / qpmin=0 / qpmax=69 / qpstep=4 / ip_ratio=1.40 / aq=3:0.80
  25. Language                                 : English
  26. Default                                  : Yes
  27. Forced                                   : No
  28. Audio
  29. ID                                       : 2
  30. Format                                   : AC-3
  31. Format/Info                              : Audio Coding 3
  32. Commercial name                          : Dolby Digital
  33. Codec ID                                 : A_AC3
  34. Duration                                 : 1 h 34 min
  35. Bit rate mode                            : Constant
  36. Bit rate                                 : 640 kb/s
  37. Channel(s)                               : 6 channels
  38. Channel layout                           : L R C LFE Ls Rs
  39. Sampling rate                            : 48.0 kHz
  40. Frame rate                               : 31.250 FPS (1536 SPF)
  41. Compression mode                         : Lossy
  42. Stream size                              : 434 MiB (17%)
  43. Title                                    : ac3
  44. Language                                 : English
  45. Service kind                             : Complete Main
  46. Default                                  : Yes
  47. Forced                                   : No
  48. Text
  49. ID                                       : 3
  50. Format                                   : PGS
  51. Muxing mode                              : zlib
  52. Codec ID                                 : S_HDMV/PGS
  53. Codec ID/Info                            : Picture based subtitle format used on BDs/HD-DVDs
  54. Duration                                 : 1 h 31 min
  55. Bit rate                                 : 10.2 kb/s
  56. Count of elements                        : 1590
  57. Stream size                              : 6.72 MiB (0%)
  58. Title                                    : sub
  59. Language                                 : German
  60. Default                                  : No
  61. Forced                                   : No
  62. Menu
  63. 00:00:00.000                             : en:00:00:00.000
  64. 00:08:27.173                             : en:00:08:27.173
  65. 00:22:13.707                             : en:00:22:13.707
  66. 00:35:50.482                             : en:00:35:50.482
  67. 00:48:23.609                             : en:00:48:23.609
  68. 00:57:35.327                             : en:00:57:35.327
  69. 01:03:51.453                             : en:01:03:51.453
  70. 01:09:45.515                             : en:01:09:45.515
  71. 01:14:45.940                             : en:01:14:45.940
  72. 01:20:36.081                             : en:01:20:36.081
  73. 01:25:43.180                             : en:01:25:43.180
  74. 01:31:50.004                             : en:01:31:50.004
复制代码









回复

使用道具 举报

蓝光币
524
发表于 2023-1-16 03:02:48 | 显示全部楼层
不错不错!!!
回复

使用道具 举报

懒得打字嘛,点击右侧快捷回复 【右侧内容,后台自定义】
您需要登录后才可以回帖 登录 | 立即加入

本版积分规则

Archiver|小黑屋| 蓝光电影网 |网站地图

Copyright © 2021 Comsenz Inc. Powered by 蓝光电影网

蓝光电影网

本站内容由用户自主分享和转载自互联网,转载目的在于传递更多信息,并不代表本网赞同其观点和对其真实性负责。

如有侵权、违反国家法律政策行为,请联系我们,我们会第一时间及时清除和处理!

举报反馈邮箱:[email protected]

快速回复 返回顶部 返回列表