找回密码

蓝光电影网

查看: 165|回复: 1

[2160p] 寄生虫.Parasite.2019.KOREAN.2160p.UHD.BluRay.x265.10bit.HDR.DDP5.1-RARBG 7.98GB

[复制链接]
蓝光币
1084
发表于 2023-1-25 16:01:06 | 显示全部楼层 |阅读模式


◎标  题 寄生虫
◎译  名 寄生上流(台) / 上流寄生族(港) / 패러사이트 / Parasite / Gisaengchung
◎片  名 기생충
◎年  代 2019
◎产  地 韩国
◎类  别 剧情
◎语  言 韩语 / 英语
◎上映日期 2019-05-21(戛纳电影节) / 2019-05-30(韩国)
◎IMDb评分 8.5/10 (811301人评价)
◎IMDb链接 https://www.imdb.com/title/tt6751668/
◎豆瓣评分 8.8/10 (1321495人评价)
◎豆瓣链接 https://movie.douban.com/subject/27010768/
◎片  长 132分钟
◎导  演 奉俊昊 Joon-ho Bong
◎编  剧 奉俊昊 Joon-ho Bong
       韩珍元 Jin-won Han
◎演  员 宋康昊 Kang-ho Song
       李善均 Seon-gyun Lee
       曹汝贞 Yeo-Jeong Jo
       崔宇植 Choi Woo-shik
       朴实丹 So-dam Park
       李姃垠 Jung-eun Lee
       张慧珍 Hye-jin Jang
       郑知晓 Ji-So Jeong
       朴明勋 Myeong-hoon Park
       朴叙俊 Seo-Joon Park
       朴根禄 Keun-rok Park
       郑贤俊 Hyun-joon Jung
       朴孝新 Pak Hyo-Shin
       安德烈亚斯·弗龙克 Andreas Fronk
       郑益汉 Ik-han Jung
       李东勇 Lee Dong-yong
       李柱亨 Ju-hyeoung Lee
       郑伊书 Yi-Seo Jung
       金河彦 Ha-Eon Kim
       朴在琓 Jae-wan Park
       金圭白 Kim Kyu Baek
       李璐雅 Lee Lu-a
       金永洲  Kim Young Jo
       李相京 Lee Sang-kyung
◎简  介
    基宇(崔宇植 饰)诞生在一个贫困的家庭当中,和妹妹基婷(朴实丹 饰)以及怙恃在狭窄的地下室里过着相依为命的日子。一天,基宇的同学上门造访,他告诉基宇,自己在一个有钱人家里给他们的女儿做家教,太太是一个脑筋简单脱手又阔气的女人,由于自己要出国留学,所以将家教的职位临时转交给基宇。                                                                      就这样,基宇来到了朴社长(李善均 饰)家中,而且见到了他的太太(赵汝贞 饰),没过量久,基宇的妹妹和怙恃也如同寄生虫一般的进入了朴社长家里工作。但是,他们的野心并没有止步于此,基宇更是和巨细姐坠入了爱河。随着时候的推移,朴社长家里隐藏的奥秘渐渐浮出了水面。
  1. Video
  2. ID                                       : 1
  3. Format                                   : HEVC
  4. Format/Info                              : High Efficiency Video Coding
  5. Format profile                           : Main [email protected]@Main
  6. HDR format                               : SMPTE ST 2086, HDR10 compatible
  7. Codec ID                                 : V_MPEGH/ISO/HEVC
  8. Duration                                 : 2 h 11 min
  9. Bit rate                                 : 8 018 kb/s
  10. Width                                    : 3 840 pixels
  11. Height                                   : 1 604 pixels
  12. Display aspect ratio                     : 2.40:1
  13. Frame rate mode                          : Constant
  14. Frame rate                               : 23.976 (24000/1001) FPS
  15. Color space                              : YUV
  16. Chroma subsampling                       : 4:2:0
  17. Bit depth                                : 10 bits
  18. Bits/(Pixel*Frame)                       : 0.054
  19. Stream size                              : 7.39 GiB (93%)
  20. Writing library                          : x265 3.5+rarbg-HDR-38-20255e6:[Linux][clang 16.0.0][64 bit] 10bit
  21. Encoding settings                        : cpuid=1111039 / frame-threads=6 / wpp / no-pmode / no-pme / no-psnr / no-ssim / log-level=2 / input-csp=1 / input-res=3840x1604 / interlace=0 / total-frames=0 / level-idc=51 / high-tier=1 / uhd-bd=0 / ref=4 / no-allow-non-conformance / repeat-headers / annexb / aud / no-eob / no-eos / no-hrd / info / hash=0 / no-temporal-layers / no-open-gop / min-keyint=1 / keyint=24 / gop-lookahead=0 / bframes=4 / b-adapt=2 / b-pyramid / bframe-bias=0 / rc-lookahead=25 / lookahead-slices=4 / scenecut=40 / no-hist-scenecut / radl=0 / no-splice / no-intra-refresh / ctu=64 / min-cu-size=8 / rect / no-amp / max-tu-size=32 / tu-inter-depth=1 / tu-intra-depth=1 / limit-tu=0 / rdoq-level=2 / dynamic-rd=0.00 / no-ssim-rd / signhide / no-tskip / nr-intra=0 / nr-inter=0 / no-constrained-intra / strong-intra-smoothing / max-merge=3 / limit-refs=3 / no-limit-modes / me=3 / subme=3 / merange=57 / temporal-mvp / no-frame-dup / no-hme / weightp / no-weightb / no-analyze-src-pics / deblock=0:0 / no-sao / no-sao-non-deblock / rd=4 / selective-sao=0 / no-early-skip / rskip / no-fast-intra / no-tskip-fast / no-cu-lossless / no-b-intra / no-splitrd-skip / rdpenalty=0 / psy-rd=2.00 / psy-rdoq=1.00 / no-rd-refine / no-lossless / cbqpoffs=0 / crqpoffs=0 / rc=abr / bitrate=8000 / qcomp=0.60 / qpstep=4 / stats-write=0 / stats-read=2 / cplxblur=20.0 / qblur=0.5 / ipratio=1.40 / pbratio=1.30 / aq-mode=1 / aq-strength=1.00 / cutree / zone-count=0 / no-strict-cbr / qg-size=32 / no-rc-grain / qpmax=69 / qpmin=0 / no-const-vbv / sar=1 / overscan=0 / videoformat=5 / range=0 / colorprim=9 / transfer=16 / colormatrix=9 / chromaloc=0 / display-window=0 / master-display=G(13250,34500)B(7500,3000)R(34000,16000)WP(15635,16450)L(10000000,1) / cll=0,0 / min-luma=0 / max-luma=1023 / log2-max-poc-lsb=8 / vui-timing-info / vui-hrd-info / slices=1 / no-opt-qp-pps / no-opt-ref-list-length-pps / no-multi-pass-opt-rps / scenecut-bias=0.05 / hist-threshold=0.03 / no-opt-cu-delta-qp / no-aq-motion / hdr10 / hdr10-opt / no-dhdr10-opt / no-idr-recovery-sei / analysis-reuse-level=0 / analysis-save-reuse-level=0 / analysis-load-reuse-level=0 / scale-factor=0 / refine-intra=0 / refine-inter=0 / refine-mv=1 / refine-ctu-distortion=0 / no-limit-sao / ctu-info=0 / no-lowpass-dct / refine-analysis-type=0 / copy-pic=1 / max-ausize-factor=1.0 / no-dynamic-refine / no-single-sei / no-hevc-aq / no-svt / no-field / qp-adaptation-range=1.00 / scenecut-aware-qp=0conformance-window-offsets / right=0 / bottom=0 / decoder-max-rate=0 / no-vbv-live-multi-pass
  22. Default                                  : Yes
  23. Forced                                   : No
  24. Color range                              : Limited
  25. Color primaries                          : BT.2020
  26. Transfer characteristics                 : PQ
  27. Matrix coefficients                      : BT.2020 non-constant
  28. Mastering display color primaries        : Display P3
  29. Mastering display luminance              : min: 0.0001 cd/m2, max: 1000 cd/m2
  30. Audio
  31. ID                                       : 2
  32. Format                                   : E-AC-3
  33. Format/Info                              : Enhanced AC-3
  34. Commercial name                          : Dolby Digital Plus
  35. Codec ID                                 : A_EAC3
  36. Duration                                 : 2 h 11 min
  37. Bit rate mode                            : Constant
  38. Bit rate                                 : 640 kb/s
  39. Channel(s)                               : 6 channels
  40. Channel layout                           : L R C LFE Ls Rs
  41. Sampling rate                            : 48.0 kHz
  42. Frame rate                               : 31.250 FPS (1536 SPF)
  43. Compression mode                         : Lossy
  44. Stream size                              : 604 MiB (7%)
  45. Title                                    : Korean DDP 5.1
  46. Language                                 : Korean
  47. Service kind                             : Complete Main
  48. Default                                  : Yes
  49. Forced                                   : No
  50. Text #1
  51. ID                                       : 3
  52. Format                                   : UTF-8
  53. Codec ID                                 : S_TEXT/UTF8
  54. Codec ID/Info                            : UTF-8 Plain Text
  55. Duration                                 : 2 h 6 min
  56. Bit rate                                 : 52 b/s
  57. Frame rate                               : 0.217 FPS
  58. Count of elements                        : 1653
  59. Stream size                              : 48.9 KiB (0%)
  60. Title                                    : English SRT
  61. Language                                 : English
  62. Default                                  : Yes
  63. Forced                                   : No
  64. Text #2
  65. ID                                       : 4
  66. Format                                   : UTF-8
  67. Codec ID                                 : S_TEXT/UTF8
  68. Codec ID/Info                            : UTF-8 Plain Text
  69. Duration                                 : 2 h 6 min
  70. Bit rate                                 : 58 b/s
  71. Frame rate                               : 0.201 FPS
  72. Count of elements                        : 1534
  73. Stream size                              : 54.0 KiB (0%)
  74. Title                                    : English SDH SRT
  75. Language                                 : English
  76. Default                                  : No
  77. Forced                                   : No
  78. Menu
  79. 00:00:00.000                             : en:Chapter 01
  80. 00:08:02.857                             : en:Chapter 02
  81. 00:12:16.235                             : en:Chapter 03
  82. 00:20:35.484                             : en:Chapter 04
  83. 00:29:21.843                             : en:Chapter 05
  84. 00:37:05.223                             : en:Chapter 06
  85. 00:44:13.859                             : en:Chapter 07
  86. 00:50:30.402                             : en:Chapter 08
  87. 00:55:22.444                             : en:Chapter 09
  88. 01:02:37.670                             : en:Chapter 10
  89. 01:10:22.718                             : en:Chapter 11
  90. 01:15:36.240                             : en:Chapter 12
  91. 01:23:27.377                             : en:Chapter 13
  92. 01:31:47.585                             : en:Chapter 14
  93. 01:38:47.588                             : en:Chapter 15
  94. 01:41:22.284                             : en:Chapter 16
  95. 01:48:21.536                             : en:Chapter 17
  96. 01:51:18.588                             : en:Chapter 18
  97. 01:56:04.540                             : en:Chapter 19
  98. 01:59:02.426                             : en:Chapter 20
  99. 02:04:02.351                             : en:Chapter 21
  100. 02:07:07.870                             : en:Chapter 22
复制代码











回复

使用道具 举报

蓝光币
145
发表于 2023-1-25 19:23:57 | 显示全部楼层

论坛不能没有像楼主这样的人才啊!我会一直支持蓝光电影网。
回复 支持 反对

使用道具 举报

懒得打字嘛,点击右侧快捷回复 【右侧内容,后台自定义】
您需要登录后才可以回帖 登录 | 立即加入

本版积分规则

Archiver|小黑屋| 蓝光电影网 |网站地图

Copyright © 2021 Comsenz Inc. Powered by 蓝光电影网

蓝光电影网

本站内容由用户自主分享和转载自互联网,转载目的在于传递更多信息,并不代表本网赞同其观点和对其真实性负责。

如有侵权、违反国家法律政策行为,请联系我们,我们会第一时间及时清除和处理!

举报反馈邮箱:[email protected]

快速回复 返回顶部 返回列表