找回密码

蓝光电影网

查看: 106|回复: 1

[2160p-WEB] 梅根.M3GAN.2023.2160p.MA.WEB-DL.DDP5.1.Atmos.DV.MKV.x265-CM 17.84GB

[复制链接]
蓝光币
1080
发表于 3 天前 | 显示全部楼层 |阅读模式


◎标  题 梅根
◎译  名 室友梅根(台) / 野生杀姬(港) / 窒友梅根 / 玩偶梅根 / M3gan
◎片  名 M3GAN
◎年  代 2022
◎产  地 美国
◎类  别 科幻 / 惊悚 / 可骇
◎语  言 英语
◎上映日期 2022-12-28(法国) / 2023-01-06(美国)
◎IMDb评分 6.6/10 (18866人评价)
◎IMDb链接 https://www.imdb.com/title/tt8760708/
◎豆瓣链接 https://movie.douban.com/subject/30277290/
◎片  长 102分钟
◎简  介
    “她不但是个玩具,而是这个家的一份子。”                                                                      梅根(M3GAN)是一个具有高度野生智能、栩栩如生的玩具人偶,被设想成小孩子最好的玩伴和令家长最安心的盟友。这款玩具人偶由一位玩具公司精采的机械人专家洁玛(艾莉森·威廉姆斯 饰)经心设想,梅根可以借由凝听以及观察进修人类行为,而且成为她照顾的小孩的朋友、教员、玩伴和庇护者。                                                                      当洁玛忽然成为她落空双亲的八岁侄女凯蒂(维奥莱特·麦格劳 饰)的监护人以后,洁玛并不肯定也没有预备好可以成为一个好的家长,加上她的工作压力很是庞大,因而就决议将她设想的野生智能玩具人偶梅根和凯蒂配对,试图处理照顾凯蒂这个孤儿和纾解她工作压力这两个题目,可是她的这个决议却形成没法想像的严重结果。
  1. Video
  2. ID                                       : 1
  3. Format                                   : HEVC
  4. Format/Info                              : High Efficiency Video Coding
  5. Format profile                           : Main [email protected]@High
  6. HDR format                               : Dolby Vision, Version 1.0, dvhe.05.06, BL+RPU
  7. Codec ID                                 : V_MPEGH/ISO/HEVC
  8. Duration                                 : 1 h 41 min
  9. Bit rate                                 : 24.3 Mb/s
  10. Width                                    : 3 840 pixels
  11. Height                                   : 2 160 pixels
  12. Display aspect ratio                     : 16:9
  13. Frame rate mode                          : Constant
  14. Frame rate                               : 23.976 (24000/1001) FPS
  15. Color space                              : YUV
  16. Chroma subsampling                       : 4:2:0 (Type 0)
  17. Bit depth                                : 10 bits
  18. Bits/(Pixel*Frame)                       : 0.122
  19. Stream size                              : 17.3 GiB (97%)
  20. Language                                 : English
  21. Default                                  : Yes
  22. Forced                                   : No
  23. Color range                              : Full
  24. Audio
  25. ID                                       : 2
  26. Format                                   : E-AC-3 JOC
  27. Format/Info                              : Enhanced AC-3 with Joint Object Coding
  28. Commercial name                          : Dolby Digital Plus with Dolby Atmos
  29. Codec ID                                 : A_EAC3
  30. Duration                                 : 1 h 41 min
  31. Bit rate mode                            : Constant
  32. Bit rate                                 : 768 kb/s
  33. Channel(s)                               : 6 channels
  34. Channel layout                           : L R C LFE Ls Rs
  35. Sampling rate                            : 48.0 kHz
  36. Frame rate                               : 31.250 FPS (1536 SPF)
  37. Compression mode                         : Lossy
  38. Stream size                              : 560 MiB (3%)
  39. Language                                 : English
  40. Service kind                             : Complete Main
  41. Default                                  : Yes
  42. Forced                                   : No
  43. Complexity index                         : 16
  44. Number of dynamic objects                : 15
  45. Bed channel count                        : 1 channel
  46. Bed channel configuration                : LFE
  47. Text #1
  48. ID                                       : 3
  49. Format                                   : UTF-8
  50. Codec ID                                 : S_TEXT/UTF8
  51. Codec ID/Info                            : UTF-8 Plain Text
  52. Duration                                 : 1 h 41 min
  53. Bit rate                                 : 76 b/s
  54. Frame rate                               : 0.306 FPS
  55. Count of elements                        : 1870
  56. Stream size                              : 57.4 KiB (0%)
  57. Title                                    : SDH
  58. Language                                 : English
  59. Default                                  : No
  60. Forced                                   : No
  61. Text #2
  62. ID                                       : 4
  63. Format                                   : UTF-8
  64. Codec ID                                 : S_TEXT/UTF8
  65. Codec ID/Info                            : UTF-8 Plain Text
  66. Duration                                 : 1 h 41 min
  67. Bit rate                                 : 69 b/s
  68. Frame rate                               : 0.271 FPS
  69. Count of elements                        : 1648
  70. Stream size                              : 51.4 KiB (0%)
  71. Language                                 : English
  72. Default                                  : No
  73. Forced                                   : No
复制代码











回复

使用道具 举报

蓝光币
2259
发表于 前天 22:54 | 显示全部楼层

这东西我收了!谢谢楼主!蓝光电影网真好!
回复 支持 反对

使用道具 举报

懒得打字嘛,点击右侧快捷回复 【右侧内容,后台自定义】
您需要登录后才可以回帖 登录 | 立即加入

本版积分规则

Archiver|小黑屋| 蓝光电影网 |网站地图

Copyright © 2021 Comsenz Inc. Powered by 蓝光电影网

蓝光电影网

本站内容由用户自主分享和转载自互联网,转载目的在于传递更多信息,并不代表本网赞同其观点和对其真实性负责。

如有侵权、违反国家法律政策行为,请联系我们,我们会第一时间及时清除和处理!

举报反馈邮箱:[email protected]

快速回复 返回顶部 返回列表