找回密码

查看: 1823|回复: 0

[喜剧] 特警新人类.Gen-X.Cops.1999.CHINESE.1080p.DSNP.WEBRip.DDP5.1.x264-NOGRP 5.79GB

[复制链接]
蓝光币
2027
发表于 2023-4-16 12:06:58 | 显示全部楼层 |阅读模式


◎译  名 Gen-X Cops
◎片  名 特警新人类
◎年  代 1999
◎产  地 中国香港
◎类  别 笑剧 / 行动 / 惊悚
◎语  言 粤语
◎上映日期 1999-06-18
◎IMDb评星  ★★★★★★☆☆☆☆
◎IMDb评分  5.9/10 from 2,333 users
◎IMDb链接  https://www.imdb.com/title/tt0206334/
◎豆瓣评星 ★★★☆☆
◎豆瓣评分 6.4/10 from 32,169 users
◎豆瓣链接 https://movie.douban.com/subject/1299048/
◎片  长 Japan: 113 分钟 / Argentina: 113 分钟 / Hong Kong: 114 分钟
◎导  演 陈木胜 / Benny Chan
◎演  员 谢霆锋 / Nicholas Tse
      冯德伦 / Stephen Fung
      李灿森 / Sam Lee
      吴彦祖 / Daniel Wu
      叶佩雯 / Grace Yip
      仲村亨 / Tôru Nakamura
      吴镇宇 / Francis Ng
      林家栋 / Ka Tung Lam
      尹子维 / Terence Yin
      曾志伟 / Eric Tsang
      成龙 / Jackie Chan
      佐滕佳次 / Keiji Sato
      陈豪 / Moses Chan
      卢惠光 / Ken Lo
      黄志荣 / Chi-Wing Wong
      戚务振 / Vincent Chi
      黎耀祥 / Wayne Lai
      麦兆辉 / Alan Mak
      布拉德利·詹姆斯·艾伦 / Bradley James Allan
      王淑美 / Jaymee Ong
      谷垣健治 / Kenji Tanigaki
      高战 / Chris Collins
◎编  剧 陈木胜 / Benny Chan
      戚家基 / Peter Tsi
      许安 / Koan Hui
      李绮华 / Yee-Wah Lee
◎制  片  人 陈自强 / Willie Chan
      成龙 / Jackie Chan
      陈木胜 / Benny Chan
      苏志鸿 / Solon So
      庄澄 / John Chong
◎摄  影 黄岳泰 / Arthur Wong
◎剪  辑 张嘉辉 / Ka-fai Cheung
◎美  术 余家安 / Bruce Yu
◎服  装 余家安 / Bruce Yu
◎视觉殊效 Sam Nicholson Sam Nicholson
      戴安娜·奥利瓦-戴 / Dianna Oliva-Day
◎行动特技 韩春 / Chun Han
      李忠志 / Chung Chi Li
◎其  它 曾景祥 / Kinson Tsang
      罗礼贤 / Bruce Law
◎简  介 
  日本可骇份子赤虎把香港作为亚太区的走私军械的重要基地,他们还利用了高端科技,蓄意应战特区政府,政府一筹莫展,继而严重威胁到全港市民的平安。警官陈聪(曾志伟 饰)为了证实自己的才能,到警校挑选了Jack(谢霆锋 饰)、Match(冯德伦 饰)、异型(李灿森 饰)与千年虫(叶佩雯 饰)四名叛逆少年组成一支特警新人类,务求抓拿赤虎。特警在初次行动渗透了黑帮杰少的构造,杰少正是赤虎的讨论人。特警渐渐获得杰少的信赖,却又被警方视为杰少的共谋,四周楚歌。在众人奋力逃生之时,也发现了赤虎的严重诡计……
◎获奖情况 
  第36届台北金马影展 (1999)
  金马奖 最好视觉结果(提名) Sam Nicholson
  第19届香港电影金像奖 (2000)
  最好摄影(提名) 黄岳泰
  最好剪接(提名) 张嘉辉
  最好美术指导(提名) 余家安
  最好打扮外型设想(提名) 余家安
  最好行动设想(提名) 李忠志
  最好声响结果(提名) 曾景祥
◎幕后揭秘
  本片三万万港币大建造,票价不低,但票房不错,叫座。题裁不新奇,但建造、包装、行动、特技,加上新人的明星潜力,大范围地拍成了最支流的国际化行动片。本片被称为新世代的成龙片,火爆兼鬼马,由西片公式加以香港化。剧情夸张到漫画,陈木胜拍出并不儿戏的气势,剧情盘曲多变,没有冷场,枪战武打亦可观。三个青春特警有滑稽有冷峻、反派的吴彦祖演技突出,曾志伟和吴镇宇在文娱片中也表示出悲情。
  1. Video
  2. ID : 1
  3. Format : AVC
  4. Format/Info : Advanced Video Codec
  5. Format profile : High@L4
  6. Format settings : CABAC / 4 Ref Frames
  7. Format settings, CABAC : Yes
  8. Format settings, Reference frames : 4 frames
  9. Codec ID : V_MPEG4/ISO/AVC
  10. Duration : 1 h 53 min
  11. Bit rate mode : Variable
  12. Bit rate : 7 050 kb/s
  13. Maximum bit rate : 12.7 Mb/s
  14. Width : 1 920 pixels
  15. Height : 1 080 pixels
  16. Display aspect ratio : 16:9
  17. Frame rate mode : Constant
  18. Frame rate : 24.000 FPS
  19. Color space : YUV
  20. Chroma subsampling : 4:2:0
  21. Bit depth : 8 bits
  22. Scan type : Progressive
  23. Bits/(Pixel*Frame) : 0.142
  24. Stream size : 5.59 GiB (96%)
  25. Language : Chinese
  26. Default : Yes
  27. Forced : No
  28. Color range : Limited
  29. Color primaries : BT.709
  30. Transfer characteristics : BT.709
  31. Matrix coefficients : BT.709
  32. Audio
  33. ID : 2
  34. Format : E-AC-3
  35. Format/Info : Enhanced AC-3
  36. Commercial name : Dolby Digital Plus
  37. Codec ID : A_EAC3
  38. Duration : 1 h 53 min
  39. Bit rate mode : Constant
  40. Bit rate : 256 kb/s
  41. Channel(s) : 6 channels
  42. Channel layout : L R C LFE Ls Rs
  43. Sampling rate : 48.0 kHz
  44. Frame rate : 31.250 FPS (1536 SPF)
  45. Compression mode : Lossy
  46. Stream size : 208 MiB (4%)
  47. Language : Chinese
  48. Service kind : Complete Main
  49. Default : No
  50. Forced : No
  51. Text #1
  52. ID : 3
  53. Format : UTF-8
  54. Codec ID : S_TEXT/UTF8
  55. Codec ID/Info : UTF-8 Plain Text
  56. Duration : 1 h 49 min
  57. Bit rate : 57 b/s
  58. Frame rate : 0.226 FPS
  59. Count of elements : 1489
  60. Stream size : 46.2 KiB (0%)
  61. Language : English
  62. Default : Yes
  63. Forced : No
  64. Text #2
  65. ID : 4
  66. Format : UTF-8
  67. Codec ID : S_TEXT/UTF8
  68. Codec ID/Info : UTF-8 Plain Text
  69. Duration : 1 h 49 min
  70. Bit rate : 49 b/s
  71. Frame rate : 0.230 FPS
  72. Count of elements : 1519
  73. Stream size : 39.7 KiB (0%)
  74. Title : Simplified
  75. Language : Chinese (Simplied)
  76. Default : No
  77. Forced : No
  78. Text #3
  79. ID : 5
  80. Format : UTF-8
  81. Codec ID : S_TEXT/UTF8
  82. Codec ID/Info : UTF-8 Plain Text
  83. Duration : 1 h 49 min
  84. Bit rate : 49 b/s
  85. Frame rate : 0.230 FPS
  86. Count of elements : 1519
  87. Stream size : 39.7 KiB (0%)
  88. Title : Traditional
  89. Language : Chinese (Traditional)
  90. Default : No
  91. Forced : No
  92. Text #4
  93. ID : 6
  94. Format : UTF-8
  95. Codec ID : S_TEXT/UTF8
  96. Codec ID/Info : UTF-8 Plain Text
  97. Duration : 1 h 49 min
  98. Bit rate : 49 b/s
  99. Frame rate : 0.230 FPS
  100. Count of elements : 1519
  101. Stream size : 39.6 KiB (0%)
  102. Title : Hong Kong
  103. Language : Chinese (HK)
  104. Default : No
  105. Forced : No
复制代码











回复

使用道具 举报

懒得打字嘛,点击右侧快捷回复 【右侧内容,后台自定义】
您需要登录后才可以回帖 登录 | 立即加入

本版积分规则

Archiver| |网站地图

Copyright © 2024 Comsenz Inc. Powered by 蓝光电影网

本站内容由用户自主分享和转载自互联网,转载目的在于传递更多信息,并不代表本网赞同其观点和对其真实性负责。

如有侵权、违反国家法律政策行为,请联系我们,我们会第一时间及时清除和处理!

举报反馈邮箱:4k1080.com@gmail.com

快速回复 返回顶部 返回列表