找回密码

查看: 2475|回复: 1

[REMUX.HEVC] 超能查派.Chappie.2015.PROPER.2160p.BluRay.REMUX.HEVC.DTS-HD.MA.TrueHD.7.1.Atmos-FGT 53.64GB

[复制链接]
蓝光币
2027
发表于 2023-5-17 22:03:21 | 显示全部楼层 |阅读模式


◎译  名 超能查派 / 超人类:卓比(港) / 成人天下(台) / 查皮 / 伙伴
◎片  名 Chappie
◎年  代 2015
◎产  地 美国 / 墨西哥 / 南非
◎类  别 行动 / 科幻 / 惊悚
◎语  言 英语
◎上映日期 2015-03-06(美国) / 2015-05-08(中国大陆)
◎IMDb评星  ★★★★★★★☆☆☆
◎IMDb评分  6.8/10 from 259,076 users
◎IMDb链接  https://www.imdb.com/title/tt1823672/
◎豆瓣评星 ★★★✦☆
◎豆瓣评分 7.4/10 from 128,176 users
◎豆瓣链接 https://movie.douban.com/subject/6846893/
◎片  长 119分钟(中国大陆) / 120分钟(美国)
◎导  演 尼尔·布洛姆坎普 / Neill Blomkamp
◎演  员 沙尔托·科普雷 / Sharlto Copley
      戴夫·帕特尔 / Dev Patel
      忍者 / Ninja
      尤兰蒂·维瑟 / Yo-Landi Visser
      何塞·巴勃罗·坎蒂略 / Jose Pablo Cantillo
      休·杰克曼 / Hugh Jackman
      西格妮·韦弗 / Sigourney Weaver
      布兰登·奥雷 / Brandon Auret
      约翰尼·赛力玛 / Johnny Selema
      安德森·库珀 / Anderson Cooper
      莫里斯·卡佩德 / Maurice Carpede
      詹森·库伯 / Jason Cope
      凯文·奥托 / Kevin Otto
      比尔·马钱特 / Bill Marchant
      罗伯特·霍布斯 / Robert Hobbs
      尤金·孔巴尼瓦 / Eugene Khumbanyiwa
      Vuyelwa Booi Vuyelwa Booi
      万迪莱·莫尔巴西 / Wandile Molebatsi
      丹·希尔斯特 / Dan Hirst
      保罗·汉普赛尔 / Paul Hampshire
      格雷姆·达菲 / Graeme Duffy
      米兰达·弗利贡 / Miranda Frigon
      詹努斯·普林斯洛 / Janus Prinsloo
      肖恩·O.罗伯茨 / Sean O. Roberts
      克里斯·希尔兹 / Chris Shields
◎编  剧 尼尔·布洛姆坎普 / Neill Blomkamp
      特丽·塔歇尔 / Terri Tatchell
◎音  乐 汉斯·季默 / Hans Zimmer
◎摄  影 特伦特·欧派洛克 / Trent Opaloch
◎服  装 戴安娜·西利尔斯 / Diana Cilliers
◎视觉殊效 马可·伍斯特 / Marco Wuest
◎其  它 黄海 / Hai Huang
◎简  介 
  故事发生在2016年的南非约翰内斯堡,为了应对不竭爬升的犯罪率,某大型兵器公司开辟了全机械差人军队。他们将机械差人批量生产并投入利用,在冲击犯罪方面获得了使人注视标结果。作为开辟职员之一,法式员迪恩(戴夫·帕特尔 Dev Patel 饰)一向努力于制造出完全的野生智能机械人。直到某天,他的研讨获得冲破性停顿,可是并未获得老板米歇尔·布莱德利(西格妮·韦弗 Sigourney Weaver 饰)的支持。不宁愿失利的迪恩偷偷将一台未几前被打坏的机械差人带出公司,预备完善他的研讨,谁知半路被三名强盗劫持。在强盗的威胁下,迪恩将22号写入全新系统。
  22号以“查派”的名字更生,它的诞生行将改变很多人的命运……
◎获奖情况 
  第14届美国视觉结果协会奖 (2016)
  最好真人电影CG动画脚色(提名)
  1. Video
  2. ID : 1
  3. ID in the original source medium : 4113 (0x1011)
  4. Format : HEVC
  5. Format/Info : High Efficiency Video Coding
  6. Format profile : Main 10@L5.1@High
  7. HDR format : SMPTE ST 2086, HDR10 compatible
  8. Codec ID : V_MPEGH/ISO/HEVC
  9. Duration : 2 h 0 min
  10. Bit rate : 49.6 Mb/s
  11. Width : 3 840 pixels
  12. Height : 2 160 pixels
  13. Display aspect ratio : 16:9
  14. Frame rate mode : Constant
  15. Frame rate : 23.976 (24000/1001) FPS
  16. Color space : YUV
  17. Chroma subsampling : 4:2:0 (Type 2)
  18. Bit depth : 10 bits
  19. Bits/(Pixel*Frame) : 0.249
  20. Stream size : 41.7 GiB (78%)
  21. Language : English
  22. Default : No
  23. Forced : No
  24. Color range : Limited
  25. Color primaries : BT.2020
  26. Transfer characteristics : PQ
  27. Matrix coefficients : BT.2020 non-constant
  28. Mastering display color primaries : Display P3
  29. Mastering display luminance : min: 0.0050 cd/m2, max: 4000 cd/m2
  30. Maximum Content Light Level : 8154 cd/m2
  31. Maximum Frame-Average Light Level : 1570 cd/m2
  32. Original source medium : Blu-ray
  33. Audio #1
  34. ID : 2
  35. ID in the original source medium : 4352 (0x1100)
  36. Format : MLP FBA 16-ch
  37. Format/Info : Meridian Lossless Packing FBA with 16-channel presentation
  38. Commercial name : Dolby TrueHD with Dolby Atmos
  39. Codec ID : A_TRUEHD
  40. Duration : 2 h 0 min
  41. Bit rate mode : Variable
  42. Bit rate : 5 407 kb/s
  43. Maximum bit rate : 8 448 kb/s
  44. Channel(s) : 8 channels
  45. Channel layout : L R C LFE Ls Rs Lb Rb
  46. Sampling rate : 48.0 kHz
  47. Frame rate : 1 200.000 FPS (40 SPF)
  48. Bit depth : 24 bits
  49. Compression mode : Lossless
  50. Stream size : 4.54 GiB (8%)
  51. Title : TrueHD 7.1 Atmos
  52. Language : English
  53. Default : Yes
  54. Forced : No
  55. Original source medium : Blu-ray
  56. Number of dynamic objects : 11
  57. Bed channel count : 1 channel
  58. Bed channel configuration : LFE
  59. Audio #2
  60. ID : 3
  61. Format : DTS XLL
  62. Format/Info : Digital Theater Systems
  63. Commercial name : DTS-HD Master Audio
  64. Codec ID : A_DTS
  65. Duration : 2 h 0 min
  66. Bit rate mode : Variable
  67. Bit rate : 4 369 kb/s
  68. Channel(s) : 8 channels
  69. Channel layout : C L R LFE Lb Rb Lss Rss
  70. Sampling rate : 48.0 kHz
  71. Frame rate : 93.750 FPS (512 SPF)
  72. Bit depth : 24 bits
  73. Compression mode : Lossless
  74. Stream size : 3.67 GiB (7%)
  75. Title : DTS-HD MA 7.1
  76. Language : English
  77. Default : No
  78. Forced : No
  79. Audio #3
  80. ID : 4
  81. ID in the original source medium : 4352 (0x1100)
  82. Format : AC-3
  83. Format/Info : Audio Coding 3
  84. Commercial name : Dolby Digital
  85. Codec ID : A_AC3
  86. Duration : 2 h 0 min
  87. Bit rate mode : Constant
  88. Bit rate : 640 kb/s
  89. Channel(s) : 6 channels
  90. Channel layout : L R C LFE Ls Rs
  91. Sampling rate : 48.0 kHz
  92. Frame rate : 31.250 FPS (1536 SPF)
  93. Compression mode : Lossy
  94. Stream size : 551 MiB (1%)
  95. Title : DD 5.1
  96. Language : English
  97. Service kind : Complete Main
  98. Default : No
  99. Forced : No
  100. Original source medium : Blu-ray
  101. Audio #4
  102. ID : 5
  103. ID in the original source medium : 4353 (0x1101)
  104. Format : AC-3
  105. Format/Info : Audio Coding 3
  106. Commercial name : Dolby Digital
  107. Codec ID : A_AC3
  108. Duration : 2 h 0 min
  109. Bit rate mode : Constant
  110. Bit rate : 640 kb/s
  111. Channel(s) : 6 channels
  112. Channel layout : L R C LFE Ls Rs
  113. Sampling rate : 48.0 kHz
  114. Frame rate : 31.250 FPS (1536 SPF)
  115. Compression mode : Lossy
  116. Stream size : 551 MiB (1%)
  117. Title : DD 5.1
  118. Language : English
  119. Service kind : Complete Main
  120. Default : No
  121. Forced : No
  122. Original source medium : Blu-ray
  123. Audio #5
  124. ID : 6
  125. ID in the original source medium : 4354 (0x1102)
  126. Format : DTS XLL
  127. Format/Info : Digital Theater Systems
  128. Commercial name : DTS-HD Master Audio
  129. Codec ID : A_DTS
  130. Duration : 2 h 0 min
  131. Bit rate mode : Variable
  132. Bit rate : 2 385 kb/s
  133. Channel(s) : 6 channels
  134. Channel layout : C L R Ls Rs LFE
  135. Sampling rate : 48.0 kHz
  136. Frame rate : 93.750 FPS (512 SPF)
  137. Bit depth : 16 bits
  138. Compression mode : Lossless
  139. Stream size : 2.00 GiB (4%)
  140. Title : DTS-HD MA 5.1
  141. Language : French
  142. Default : No
  143. Forced : No
  144. Original source medium : Blu-ray
  145. Audio #6
  146. ID : 7
  147. ID in the original source medium : 4355 (0x1103)
  148. Format : AC-3
  149. Format/Info : Audio Coding 3
  150. Commercial name : Dolby Digital
  151. Codec ID : A_AC3
  152. Duration : 2 h 0 min
  153. Bit rate mode : Constant
  154. Bit rate : 640 kb/s
  155. Channel(s) : 6 channels
  156. Channel layout : L R C LFE Ls Rs
  157. Sampling rate : 48.0 kHz
  158. Frame rate : 31.250 FPS (1536 SPF)
  159. Compression mode : Lossy
  160. Stream size : 551 MiB (1%)
  161. Title : DD 5.1
  162. Language : Spanish
  163. Service kind : Complete Main
  164. Default : No
  165. Forced : No
  166. Original source medium : Blu-ray
  167. Text #1
  168. ID : 8
  169. Format : UTF-8
  170. Codec ID : S_TEXT/UTF8
  171. Codec ID/Info : UTF-8 Plain Text
  172. Duration : 1 h 53 min
  173. Bit rate : 61 b/s
  174. Frame rate : 0.239 FPS
  175. Count of elements : 1627
  176. Stream size : 51.4 KiB (0%)
  177. Language : English
  178. Default : Yes
  179. Forced : No
  180. Text #2
  181. ID : 9
  182. Format : UTF-8
  183. Codec ID : S_TEXT/UTF8
  184. Codec ID/Info : UTF-8 Plain Text
  185. Duration : 1 h 53 min
  186. Bit rate : 64 b/s
  187. Frame rate : 0.271 FPS
  188. Count of elements : 1848
  189. Stream size : 54.1 KiB (0%)
  190. Title : SDH
  191. Language : English
  192. Default : No
  193. Forced : No
  194. Text #3
  195. ID : 10
  196. ID in the original source medium : 4768 (0x12A0)
  197. Format : PGS
  198. Muxing mode : zlib
  199. Codec ID : S_HDMV/PGS
  200. Codec ID/Info : Picture based subtitle format used on BDs/HD-DVDs
  201. Duration : 1 h 53 min
  202. Bit rate : 27.7 kb/s
  203. Frame rate : 0.542 FPS
  204. Count of elements : 3697
  205. Stream size : 22.5 MiB (0%)
  206. Language : English
  207. Default : No
  208. Forced : No
  209. Original source medium : Blu-ray
  210. Text #4
  211. ID : 11
  212. ID in the original source medium : 4769 (0x12A1)
  213. Format : PGS
  214. Muxing mode : zlib
  215. Codec ID : S_HDMV/PGS
  216. Codec ID/Info : Picture based subtitle format used on BDs/HD-DVDs
  217. Duration : 1 h 52 min
  218. Bit rate : 34.6 kb/s
  219. Frame rate : 0.466 FPS
  220. Count of elements : 3137
  221. Stream size : 27.8 MiB (0%)
  222. Language : English
  223. Default : No
  224. Forced : No
  225. Original source medium : Blu-ray
  226. Text #5
  227. ID : 12
  228. ID in the original source medium : 4770 (0x12A2)
  229. Format : PGS
  230. Muxing mode : zlib
  231. Codec ID : S_HDMV/PGS
  232. Codec ID/Info : Picture based subtitle format used on BDs/HD-DVDs
  233. Duration : 1 h 59 min
  234. Bit rate : 25.2 kb/s
  235. Frame rate : 0.420 FPS
  236. Count of elements : 3014
  237. Stream size : 21.6 MiB (0%)
  238. Language : French
  239. Default : No
  240. Forced : No
  241. Original source medium : Blu-ray
  242. Text #6
  243. ID : 13
  244. ID in the original source medium : 4771 (0x12A3)
  245. Format : PGS
  246. Muxing mode : zlib
  247. Codec ID : S_HDMV/PGS
  248. Codec ID/Info : Picture based subtitle format used on BDs/HD-DVDs
  249. Duration : 1 h 59 min
  250. Bit rate : 31.9 kb/s
  251. Frame rate : 0.498 FPS
  252. Count of elements : 3573
  253. Stream size : 27.3 MiB (0%)
  254. Language : Spanish
  255. Default : No
  256. Forced : No
  257. Original source medium : Blu-ray
  258. Text #7
  259. ID : 14
  260. ID in the original source medium : 4772 (0x12A4)
  261. Format : PGS
  262. Muxing mode : zlib
  263. Codec ID : S_HDMV/PGS
  264. Codec ID/Info : Picture based subtitle format used on BDs/HD-DVDs
  265. Duration : 1 h 15 min
  266. Bit rate : 304 b/s
  267. Frame rate : 0.004 FPS
  268. Count of elements : 20
  269. Stream size : 169 KiB (0%)
  270. Language : French
  271. Default : No
  272. Forced : No
  273. Original source medium : Blu-ray
  274. Text #8
  275. ID : 15
  276. ID in the original source medium : 4772 (0x12A4)
  277. Format : PGS
  278. Muxing mode : zlib
  279. Codec ID : S_HDMV/PGS
  280. Codec ID/Info : Picture based subtitle format used on BDs/HD-DVDs
  281. Duration : 1 h 15 min
  282. Bit rate : 304 b/s
  283. Frame rate : 0.004 FPS
  284. Count of elements : 20
  285. Stream size : 169 KiB (0%)
  286. Language : French
  287. Default : No
  288. Forced : No
  289. Original source medium : Blu-ray
  290. Menu
  291. 00:00:00.000 : en:Chapter 01
  292. 00:03:37.008 : en:Chapter 02
  293. 00:09:55.219 : en:Chapter 03
  294. 00:13:50.162 : en:Chapter 04
  295. 00:21:53.645 : en:Chapter 05
  296. 00:31:17.542 : en:Chapter 06
  297. 00:37:18.986 : en:Chapter 07
  298. 00:46:58.732 : en:Chapter 08
  299. 00:54:36.690 : en:Chapter 09
  300. 01:06:12.677 : en:Chapter 10
  301. 01:09:57.651 : en:Chapter 11
  302. 01:16:48.228 : en:Chapter 12
  303. 01:24:59.552 : en:Chapter 13
  304. 01:31:35.198 : en:Chapter 14
  305. 01:42:36.942 : en:Chapter 15
  306. 01:50:03.597 : en:Chapter 16
复制代码












回复

使用道具 举报

蓝光币
435
发表于 2023-5-21 11:59:59 | 显示全部楼层
楼主发贴辛苦了,谢谢楼主分享!我觉得蓝光电影网是注册对了!
回复

使用道具 举报

懒得打字嘛,点击右侧快捷回复 【右侧内容,后台自定义】
您需要登录后才可以回帖 登录 | 立即加入

本版积分规则

Archiver| |网站地图

Copyright © 2024 Comsenz Inc. Powered by 蓝光电影网

本站内容由用户自主分享和转载自互联网,转载目的在于传递更多信息,并不代表本网赞同其观点和对其真实性负责。

如有侵权、违反国家法律政策行为,请联系我们,我们会第一时间及时清除和处理!

举报反馈邮箱:4k1080.com@gmail.com

快速回复 返回顶部 返回列表