找回密码

查看: 1526|回复: 1

[剧情] 热辣奇多的诞生.Flamin.Hot.2023.1080p.HULU.WEB-DL.DDP5.1.H.264-samhyde 3.56GB

[复制链接]
蓝光币
2027
发表于 2023-7-6 02:43:27 | 显示全部楼层 |阅读模式


◎译  名 热辣奇多的诞生 / 火辣奇多的诞生(台)
◎片  名 Flamin' Hot
◎年  代 2023
◎产  地 美国
◎类  别 剧情 / 列传 / 历史
◎语  言 英语
◎上映日期 2023-03-11(西南偏南电影节) / 2023-06-09(美国收集)
◎IMDb评星  ★★★★★★★☆☆☆
◎IMDb评分  6.9/10 from 9,160 users
◎IMDb链接  https://www.imdb.com/title/tt8105234/
◎豆瓣评星 ★★★✦☆
◎豆瓣评分 7.3/10 from 268 users
◎豆瓣链接 https://movie.douban.com/subject/36092435/
◎片  长 99分钟
◎导  演 伊娃·朗格利亚 / Eva Longoria
◎演  员 杰西·加西亚 / Jesse Garcia | 饰 Richard Montañez
      托尼·夏尔赫布 / Tony Shalhoub | 饰 Roger Enrico
      丹尼斯·海斯伯特 / Dennis Haysbert
      马特·沃尔什 / Matt Walsh
      埃米里奥·瑞弗拉 / Emilio Rivera | 饰 Vacho Montañez
      帕皮·塞尔纳 / Pepe Serna
      菲奈莎马丁内斯 / Vanessa Martinez
      洛拉·玛汀内斯-康宁安 / Lora Martinez-Cunningham | 饰 Patti
      鲍比·索托 / Bobby Soto
      吉米·冈萨雷斯 / Jimmy Gonzales
      小霍华德·弗格森 / Howard Ferguson Jr. | 饰 Al Carey
      杰克莫·巴泽尔 / Jackamoe Buzzell | 饰 Post Office Customer
      格瑞格·鲁兹 / Greg Lutz | 饰 Angry Husband
      伊莱·比克尔 / Eli Bickel  | 饰 Cafeteria Kid
      汉克·罗杰森 / Hank Rogerson | 饰 Mini Mart Manager
      卡洛斯·S·桑切斯 / Carlos S. Sanchez | 饰 Young Richard
      扎克·罗斯 / Zach Rose | 饰 Wade Carson
      J·内森·西蒙斯 / J. Nathan Simmons | 饰 Neighbor
      雅各布·布朗 / Jacob Browne | 饰 Post Office Clerk
      克丽斯托·梅耶斯 / Crystal Mayes | 饰 Restaurant PATRON
◎编  剧 刘易斯·科利克 / Lewis Colick
◎简  介 
  Flamin' Hot is the story of Richard Montañez, the Frito Lay janitor who channeled his Mexican American heritage and upbringing to turn Flamin' Hot Cheetos into a snack that disrupted the food industry and became a global phenomenon.
  1. Video
  2. ID                                       : 1
  3. Format                                   : AVC
  4. Format/Info                              : Advanced Video Codec
  5. Format profile                           : High@L4
  6. Format settings                          : CABAC / 4 Ref Frames
  7. Format settings, CABAC                   : Yes
  8. Format settings, Reference frames        : 4 frames
  9. Codec ID                                 : V_MPEG4/ISO/AVC
  10. Duration                                 : 1 h 38 min
  11. Bit rate                                 : 4 890 kb/s
  12. Width                                    : 1 920 pixels
  13. Height                                   : 1 080 pixels
  14. Display aspect ratio                     : 16:9
  15. Frame rate mode                          : Constant
  16. Frame rate                               : 24.000 FPS
  17. Color space                              : YUV
  18. Chroma subsampling                       : 4:2:0
  19. Bit depth                                : 8 bits
  20. Scan type                                : Progressive
  21. Bits/(Pixel*Frame)                       : 0.098
  22. Stream size                              : 3.38 GiB (95%)
  23. Default                                  : Yes
  24. Forced                                   : No
  25. Audio
  26. ID                                       : 2
  27. Format                                   : E-AC-3
  28. Format/Info                              : Enhanced AC-3
  29. Commercial name                          : Dolby Digital Plus
  30. Codec ID                                 : A_EAC3
  31. Duration                                 : 1 h 38 min
  32. Bit rate mode                            : Constant
  33. Bit rate                                 : 256 kb/s
  34. Channel(s)                               : 6 channels
  35. Channel layout                           : L R C LFE Ls Rs
  36. Sampling rate                            : 48.0 kHz
  37. Frame rate                               : 31.250 FPS (1536 SPF)
  38. Compression mode                         : Lossy
  39. Stream size                              : 181 MiB (5%)
  40. Title                                    : English
  41. Language                                 : English
  42. Service kind                             : Complete Main
  43. Default                                  : Yes
  44. Forced                                   : No
  45. Text
  46. ID                                       : 3
  47. Format                                   : UTF-8
  48. Codec ID                                 : S_TEXT/UTF8
  49. Codec ID/Info                            : UTF-8 Plain Text
  50. Duration                                 : 1 h 34 min
  51. Bit rate                                 : 100 b/s
  52. Frame rate                               : 0.326 FPS
  53. Count of elements                        : 1839
  54. Stream size                              : 69.2 KiB (0%)
  55. Title                                    : English
  56. Language                                 : English
  57. Default                                  : Yes
  58. Forced                                   : No
复制代码








相关帖子

回复

使用道具 举报

蓝光币
188
发表于 2024-1-29 20:23:09 | 显示全部楼层

这个帖子不回对不起自己!我想我是一天也不能离开蓝光电影网。
回复

使用道具 举报

懒得打字嘛,点击右侧快捷回复 【右侧内容,后台自定义】
您需要登录后才可以回帖 登录 | 立即加入

本版积分规则

Archiver| |网站地图

Copyright © 2024 Comsenz Inc. Powered by 蓝光电影网

本站内容由用户自主分享和转载自互联网,转载目的在于传递更多信息,并不代表本网赞同其观点和对其真实性负责。

如有侵权、违反国家法律政策行为,请联系我们,我们会第一时间及时清除和处理!

举报反馈邮箱:4k1080.com@gmail.com

快速回复 返回顶部 返回列表