找回密码

查看: 1576|回复: 2

[动作] 自由之声.Sound.Of.Freedom.2023.1080p.WEB.DTS-HD.7.1.x264-AOC 10.70GB

[复制链接]
蓝光币
2027
发表于 2023-10-7 15:17:24 | 显示全部楼层 |阅读模式


◎译  名 自在之声
◎片  名 Sound of Freedom
◎年  代 2023
◎产  地 美国
◎类  别 行动 / 列传 / 犯罪
◎语  言 英语 / 西班牙语
◎上映日期 2023-07-04(美国)
◎IMDb评星  ★★★★★★★★☆☆
◎IMDb评分  7.8/10 from 64,775 users
◎IMDb链接  https://www.imdb.com/title/tt7599146/
◎豆瓣评星 ★★★★☆
◎豆瓣评分 8.0/10 from 3,304 users
◎豆瓣链接 https://movie.douban.com/subject/30454682/
◎片  长 131分钟
◎导  演 亚历杭德罗·戈麦斯·蒙特维尔德 / Alejandro Gomez Monteverde
◎演  员 吉姆·卡维泽 / Jim Caviezel | 饰 Tim Ballard
      比尔·坎普 / Bill Camp | 饰 Vampiro
      克里斯特尔·阿帕里西奥 / Cristal Aparicio | 饰 Rocío
      哈维尔·戈迪诺 / Javier Godino | 饰 Jorge
      耶西卡·博罗托·佩里曼 / Yessica Borroto Perryman | 饰 Katy / Giselle
      曼尼·佩雷斯 / Manny Perez | 饰 Fuego
      埃杜瓦多·维拉斯蒂吉 / Eduardo Verástegui | 饰 Pablo
      古斯塔沃·桑切斯·帕拉 / Gustavo Sánchez Parra | 饰 El Calacas
      克里斯·阿韦迪西安 / Kris Avedisian | 饰 Oshinsky
      何塞·祖尼加 / José Zúñiga | 饰 Roberto
      盖里·巴萨拉巴 / Gary Basaraba | 饰 Earl Backman
      赫拉多·塔拉塞纳 / Gerardo Taracena | 饰 El Alacrán
      斯科特·黑兹 / Scott Haze | 饰 Chris
      瓦莱莉·多明古兹 / Valerie Domínguez | 饰 Tanya
      米拉·索维诺 / Mira Sorvino | 饰 Katherine
      柯特·富勒 / Kurt Fuller | 饰 John Bryant
      杰罗尼莫·巴伦 / Jerónimo Barón | 饰 Kalen
      阿里尔·茜耶拉 / Ariel Sierra | 饰 Checho
      阿丽·兰德里 / Ali Landry | 饰 Nurse
      詹姆斯·夸特罗奇 / James Quattrochi | 饰 Guard
      卢卡斯·阿维拉 / Lucás Ávila | 饰 Miguel
◎编  剧 罗德·巴尔 / Rod Barr
      亚历杭德罗·戈麦斯·蒙特维尔德 / Alejandro Gomez Monteverde
◎简  介 
  本片基于使人难以置信的实在事务改编,联邦捕快蒂姆·巴拉德(吉姆·卡维泽 Jim Caviezel 饰)在把一个小男孩从残暴的儿童拐卖犯罪中解救出来以后,得知男孩的姐姐一样被拐,他决议冒险前往救援,但政府没法派兵到他国国土救济。时候紧急,蒂姆辞去工作,深入哥伦比亚森林以身犯险,誓要把女孩从生不如死的命运中解救出来。
  1. General
  2. Unique ID                                : 3359266799611528758541852855405923370 (0x286F8A3F987B6961FB48335BE184C2A)
  3. Complete name                            : C:\Users\User\Downloads\Galaxy\Sound.Of.Freedom.2023.1080p.WEB.DTS-HD.7.1.x264-AOC\Sound.Of.Freedom.2023.1080p.WEB.DTS-HD.7.1.x264-AOC.mkv
  4. Format                                   : Matroska
  5. Format version                           : Version 4
  6. File size                                : 10.6 GiB
  7. Duration                                 : 2 h 10 min
  8. Overall bit rate mode                    : Variable
  9. Overall bit rate                         : 11.6 Mb/s
  10. Frame rate                               : 24.000 FPS
  11. Movie name                               : Sound Of Freedom
  12. Encoded date                             : 2023-10-05 11:13:04 UTC
  13. Writing application                      : mkvmerge v78.0 ('Running') 64-bit
  14. Writing library                          : libebml v1.4.4 + libmatroska v1.7.1
  15. Video
  16. ID                                       : 1
  17. Format                                   : AVC
  18. Format/Info                              : Advanced Video Codec
  19. Format profile                           : High@L4
  20. Format settings                          : CABAC / 4 Ref Frames
  21. Format settings, CABAC                   : Yes
  22. Format settings, Reference frames        : 4 frames
  23. Codec ID                                 : V_MPEG4/ISO/AVC
  24. Duration                                 : 2 h 10 min
  25. Bit rate mode                            : Constant
  26. Bit rate                                 : 8 287 kb/s
  27. Nominal bit rate                         : 10 000 kb/s
  28. Width                                    : 1 920 pixels
  29. Height                                   : 800 pixels
  30. Display aspect ratio                     : 2.40:1
  31. Frame rate mode                          : Constant
  32. Frame rate                               : 24.000 FPS
  33. Color space                              : YUV
  34. Chroma subsampling                       : 4:2:0
  35. Bit depth                                : 8 bits
  36. Scan type                                : Progressive
  37. Bits/(Pixel*Frame)                       : 0.225
  38. Stream size                              : 7.58 GiB (71%)
  39. Language                                 : English
  40. Default                                  : Yes
  41. Forced                                   : No
  42. Color range                              : Limited
  43. Color primaries                          : BT.709
  44. Transfer characteristics                 : BT.709
  45. Matrix coefficients                      : BT.709
  46. Audio
  47. ID                                       : 2
  48. Format                                   : DTS XLL
  49. Format/Info                              : Digital Theater Systems
  50. Commercial name                          : DTS-HD Master Audio
  51. Codec ID                                 : A_DTS
  52. Duration                                 : 2 h 10 min
  53. Bit rate mode                            : Variable
  54. Bit rate                                 : 3 308 kb/s
  55. Channel(s)                               : 8 channels
  56. Channel layout                           : C L R LFE Lb Rb Lss Rss
  57. Sampling rate                            : 48.0 kHz
  58. Frame rate                               : 93.750 FPS (512 SPF)
  59. Bit depth                                : 16 bits
  60. Compression mode                         : Lossless
  61. Stream size                              : 3.03 GiB (29%)
  62. Title                                    : DTS XLL,DTS-HD Master Audio 7.1 @3308 KB/S
  63. Language                                 : English
  64. Default                                  : Yes
  65. Forced                                   : No
复制代码










回复

使用道具 举报

蓝光币
289
发表于 2023-10-7 18:02:46 | 显示全部楼层
谢谢楼主!
回复

使用道具 举报

蓝光币
359
发表于 2023-10-19 06:29:21 | 显示全部楼层
谢谢楼主,感谢网站
回复

使用道具 举报

懒得打字嘛,点击右侧快捷回复 【右侧内容,后台自定义】
您需要登录后才可以回帖 登录 | 立即加入

本版积分规则

Archiver| |网站地图

Copyright © 2024 Comsenz Inc. Powered by 蓝光电影网

本站内容由用户自主分享和转载自互联网,转载目的在于传递更多信息,并不代表本网赞同其观点和对其真实性负责。

如有侵权、违反国家法律政策行为,请联系我们,我们会第一时间及时清除和处理!

举报反馈邮箱:4k1080.com@gmail.com

快速回复 返回顶部 返回列表