找回密码

查看: 619|回复: 1

[动作] 两大一小三俘虏/三个亡命徒 Three.Fugitives.1989.1080p.WEBRip.DD2.0.x264-NTb 9.44GB

[复制链接]
蓝光币
2027
发表于 2024-1-10 18:55:33 | 显示全部楼层 |阅读模式
两大一小三俘虏/三个亡命徒 Three.Fugitives.1989.1080p.WEBRip.DD2.0.x264-NTb 9.44GB-1.jpg
◎译  名 两大一小三俘虏 / 三个亡命徒 / 惊箐三人组
◎片  名 Three Fugitives
◎年  代 1989
◎产  地 美国
◎类  别 笑剧 / 行动
◎语  言 英语
◎上映日期 1989-01-27
◎IMDb评分  6.2/10 from 10437 users
◎IMDb链接  https://www.imdb.com/title/tt0098471
◎豆瓣评分 8.1/10 from 1060 users
◎豆瓣链接 https://movie.douban.com/subject/1306378/
◎片  长 96 分钟
◎导  演 Francis Veber
◎编  剧 Francis Veber
◎主  演 Nick Nolte
       Martin Short
       James Earl Jones


◎标  签 笑剧 | 美国 | 美国电影 | 犯罪 | 搞笑 | 1989 | 亲情 | 三个亡命徒

◎简  介  

  改编自法国片《逃犯》(LES FUGIFIF'S)的抢银行笑剧,将造物弄人的主题透过结构奇妙的故事发挥得淋漓尽致。尼克·诺尔蒂饰演刚出狱的大盗,他在银行遇上乌龙劫匪马丁·肖特,竞被劫持为人质,致使警方误以为他重操旧业,不能不展开流亡。相处之下,诺尔蒂发现肖特实在有小人物的辛酸故事,而且跟他的小女儿莎拉·罗露发生了一段温馨的豪情,从而也熔解了他冷傲的心。
  1. General
  2. Complete name : Three.Fugitives.1989.1080p.WEBRip.DD+2.0.x264-NTb.mkv
  3. Format : Matroska
  4. Format version : Version 4
  5. File size : 9.44 GiB
  6. Duration : 1 h 36 min
  7. Overall bit rate mode : Variable
  8. Overall bit rate : 14.0 Mb/s
  9. Encoded date : UTC 2016-10-13 13:52:54
  10. Writing application : mkvmerge v9.3.1 ('Mask Machine') 64bit
  11. Writing library : libebml v1.3.4 + libmatroska v1.4.5

  12. Video
  13. ID : 1
  14. Format : AVC
  15. Format/Info : Advanced Video Codec
  16. Format profile : High@L4
  17. Format settings : CABAC / 4 Ref Frames
  18. Format settings, CABAC : Yes
  19. Format settings, Reference fra : 4 frames
  20. Codec ID : V_MPEG4/ISO/AVC
  21. Duration : 1 h 36 min
  22. Bit rate mode : Variable
  23. Bit rate : 13.5 Mb/s
  24. Maximum bit rate : 15.0 Mb/s
  25. Width : 1 920 pixels
  26. Height : 1 040 pixels
  27. Display aspect ratio : 1.85:1
  28. Frame rate mode : Constant
  29. Frame rate : 23.976 (24000/1001) FPS
  30. Color space : YUV
  31. Chroma subsampling : 4:2:0
  32. Bit depth : 8 bits
  33. Scan type : Progressive
  34. Bits/(Pixel*Frame) : 0.283
  35. Stream size : 9.10 GiB (96%)
  36. Writing library : x264 core 148 r2623 d5b2374
  37. Encoding settings : cabac=1 / ref=4 / deblock=1:-1:-1 / analyse=0x3:0x133 / me=umh / subme=9 / psy=1 / psy_rd=1.00:0.15 / mixed_ref=1 / me_range=24 / chroma_me=1 / trellis=2 / 8x8dct=1 / cqm=0 / deadzone=21,11 / fast_pskip=1 / chroma_qp_offset=-3 / threads=32 / lookahead_threads=5 / sliced_threads=0 / nr=150 / decimate=1 / interlaced=0 / bluray_compat=0 / constrained_intra=0 / bframes=8 / b_pyramid=2 / b_adapt=2 / b_bias=0 / direct=3 / weightb=1 / open_gop=0 / weightp=2 / keyint=120 / keyint_min=61 / scenecut=0 / intra_refresh=0 / rc_lookahead=120 / rc=crf / mbtree=1 / crf=18.0 / qcomp=0.60 / qpmin=0 / qpmax=69 / qpstep=4 / vbv_maxrate=15000 / vbv_bufsize=31250 / crf_max=0.0 / nal_hrd=vbr / filler=0 / ip_ratio=1.40 / aq=3:1.00
  38. Default : Yes
  39. Forced : No
  40. Color range : Limited
  41. Color primaries : BT.709
  42. Transfer characteristics : BT.709
  43. Matrix coefficients : BT.709

  44. Audio
  45. ID : 2
  46. Format : E-AC-3
  47. Format/Info : Enhanced AC-3
  48. Commercial name : Dolby Digital Plus
  49. Codec ID : A_EAC3
  50. Duration : 1 h 36 min
  51. Bit rate mode : Constant
  52. Bit rate : 224 kb/s
  53. Channel(s) : 2 channels
  54. Channel layout : L R
  55. Sampling rate : 48.0 kHz
  56. Frame rate : 31.250 FPS (1536 SPF)
  57. Compression mode : Lossy
  58. Stream size : 154 MiB (2%)
  59. Language : English
  60. Service kind : Complete Main
  61. Default : Yes
  62. Forced : No

  63. Text
  64. ID : 3
  65. Format : UTF-8
  66. Codec ID : S_TEXT/UTF8
  67. Codec ID/Info : UTF-8 Plain Text
  68. Language : English
  69. Default : No
  70. Forced : No
复制代码
两大一小三俘虏/三个亡命徒 Three.Fugitives.1989.1080p.WEBRip.DD2.0.x264-NTb 9.44GB-2.jpg








回复

使用道具 举报

头像被屏蔽
蓝光币
1
发表于 2024-2-1 06:37:24 | 显示全部楼层
提示: 该帖被管理员或版主屏蔽
回复

使用道具 举报

懒得打字嘛,点击右侧快捷回复 【右侧内容,后台自定义】
您需要登录后才可以回帖 登录 | 立即加入

本版积分规则

Archiver| |网站地图

Copyright © 2024 Comsenz Inc. Powered by 蓝光电影网

本站内容由用户自主分享和转载自互联网,转载目的在于传递更多信息,并不代表本网赞同其观点和对其真实性负责。

如有侵权、违反国家法律政策行为,请联系我们,我们会第一时间及时清除和处理!

举报反馈邮箱:4k1080.com@gmail.com

快速回复 返回顶部 返回列表