找回密码

查看: 506|回复: 1

[剧情] 法拉利.Ferrari.2023.REPACK.1080p.AMZN.WEB-DL.DDP5.1.Atmos.H.264-FLUX 6.58GB

[复制链接]
蓝光币
2048
发表于 2024-1-28 16:51:21 | 显示全部楼层 |阅读模式


◎译  名 法拉利 / 法拉利传 / 恩佐·法拉利 / Enzo Ferrari
◎片  名 Ferrari
◎年  代 2023
◎产  地 美国 / 英国 / 意大利 / 中国大陆
◎类  别 剧情 / 列传 / 历史
◎语  言 英语
◎上映日期 2023-08-31(威尼斯国际电影节) / 2023-12-25(美国)
◎IMDb评星  ★★★★★★✦☆☆☆
◎IMDb评分  6.7/10 from 15,600 users
◎IMDb链接  https://www.imdb.com/title/tt3758542/
◎豆瓣链接 https://movie.douban.com/subject/26368295/
◎片  长 130分钟
◎导  演 迈克尔·曼 / Michael Mann
◎演  员 亚当·德赖弗 / Adam Driver | 饰 Enzo Ferrari
      佩内洛普·克鲁兹 / Penélope Cruz | 饰 Laura Dominica Garello Ferrari
      谢琳·伍德蕾 / Shailene Woodley | 饰 Lina Lardi
      莎拉·加顿 / Sarah Gadon | 饰 Linda Christian
      加布里埃尔·利昂纳 / Gabriel Leone | 饰 Alfonso De Portago
      杰克·奥康奈尔 / Jack O'Connell | 饰 Peter Collins
      帕特里克·德姆西 / Patrick Dempsey | 饰 Piero Taruffi
      瓦伦蒂娜·贝莱 / Valentina Bellè | 饰 Cecilia Manzini
      马西·弗伦 / Massi Furlan | 饰 Italian journalist
      托马索·巴西利 / Tommaso Basili | 饰 Gianni Agnelli
      埃里克·豪根 / Erik Haugen | 饰 Edmund Nelson
      布雷特·斯姆兹 / Brett Smrz | 饰 Olivier Gendebien
      彼得·阿佩塞拉 / Peter Arpesella | 饰 TV Sportscaster
      利诺· / 穆塞拉 Lino Musella | 饰 Sergio Scaglietti
      朱塞佩·博尼法蒂 / Giuseppe Bonifati | 饰 Giacomo Cuoghi
      安德烈亚·布鲁斯基 / Andrea Bruschi | 饰 Bishop
      安德烈·多伦特 / Andrea Dolente | 饰 Gino Rancati
      卢卡·德拉·瓦莱 / Luca Della Valle | 配 Italian Journalist
      艾格尼丝·布里吉蒂尼 / Agnese Brighittini | 饰 Guidizzolo Mother
      朱塞佩·鲁索 / Giuseppe Russo | 配 Carabiniere / TV Sportcaster
      怀亚特·卡内尔 / Wyatt Carnel | 饰 Wolfgang von Trips
      米歇尔·萨沃亚 / Michele Savoia | 饰 Carlo Chiti
      塞缪尔·胡比内特 / Samuel Hubinette | 饰 Mike Hawthorn
      莱昂纳多·凯米 / Leonardo Caimi | 饰 Brusoni
      詹菲利波·格拉索 / Gianfilippo Grasso | 饰 Matteo
      亚历克斯·通蒂 / Alex Tonti | 饰 Appearance
◎编  剧 特洛伊·肯尼迪-马丁 / Troy Kennedy-Martin
      布洛克·耶茨 / Brock Yates
◎制  片  人 韩薇 / Wei Han
◎服  装 马西莫·坎蒂尼·帕里尼 / Massimo Cantini Parrini
◎简  介 
  该片聚焦在1957年的炎天,报告了法拉利与玛莎拉蒂争取赛道霸主职位的传奇故事。一天早上,前赛车手恩佐·法拉利的妻子接到两通电话,被奉告让·贝拉刚刚从米兰留宿赶来。发现法拉利并不在家中,妻子劳拉非常恼火,由于两人一向在维系着名存实亡的婚姻,他们约定天天早上必须定时一路喝咖啡。当法拉利得知,贝拉此次特地来米兰,就是为了应战法拉利的赛车记录,他打电话向朋友莫所里尼乞助。气急废弛的妻子间接向法拉利开枪,她告诉法拉利,他们的公司将要破产。他们的儿子迪诺两年前死于肌肉萎缩症。当法拉利在教堂和墓地沉醉于失落和哀痛的情感中时,贝拉已经在赛道上蓄势待发。意外不竭,他的赛道好友莫所里尼不幸归天。法拉利别无挑选,必须迎战危险的米尔·米利亚,拿到援助资金。米尔·米利亚赛程艰辛,路子山谷、树林、草地、急流,遭受暴雪等极端天气,处处布满着危险,一路上法拉利与玛莎拉蒂等赛车履历剧烈生死角逐。赛车不竭出现意外,在吉迪多洛的角逐变乱中法拉利被控过失杀人罪,终极被法院宣布无罪。劳拉死后,法拉利被正式承以为法拉利公司的继续人。在接下来的一年里,法拉利重新获得了天下锦标赛,他的红色赛车成为天下赛车中最主导的气力。
  该片剧本改编自布洛克·耶茨1991年出书的小说《恩佐·法拉利:汉子·汽车·角逐》。
◎获奖情况 
  第80届威尼斯电影节 (2023)
  主比赛单元 金狮奖 (提名) 迈克尔·曼
  第77届英国电影学院奖 (2024)
  电影奖 最好音效(提名)
  第33届哥谭自力电影奖 (2023)
  最好配角表演(提名) 佩内洛普·克鲁兹
  Icon and Creator Tribute for Innovation 迈克尔·曼
  第57届美国国家影评人协会奖 (2023)
  最好女配角(提名) 佩内洛普·克鲁兹
  1. General
  2. Unique ID : 283211139577635567158730061661597239215 (0xD5107B3EF9659BA428DDC02BFABA87AF)
  3. Complete name : Ferrari.2023.REPACK.1080p.AMZN.WEB-DL.DDP5.1.Atmos.H.264-FLUX.mkv
  4. Format : Matroska
  5. Format version : Version 4
  6. File size : 6.58 GiB
  7. Duration : 2 h 10 min
  8. Overall bit rate : 7 207 kb/s
  9. Writing application : mkvmerge v79.0 ('Funeral Pyres') 64-bit
  10. Writing library : libebml v1.4.4 + libmatroska v1.7.1
  11. Video
  12. ID : 1
  13. Format : AVC
  14. Format/Info : Advanced Video Codec
  15. Format profile : High@L4
  16. Format settings : CABAC / 4 Ref Frames
  17. Format settings, CABAC : Yes
  18. Format settings, Reference frames : 4 frames
  19. Codec ID : V_MPEG4/ISO/AVC
  20. Duration : 2 h 10 min
  21. Bit rate mode : Constant
  22. Bit rate : 6 295 kb/s
  23. Nominal bit rate : 10 000 kb/s
  24. Width : 1 920 pixels
  25. Height : 816 pixels
  26. Display aspect ratio : 2.35:1
  27. Frame rate mode : Constant
  28. Frame rate : 23.976 (24000/1001) FPS
  29. Color space : YUV
  30. Chroma subsampling : 4:2:0
  31. Bit depth : 8 bits
  32. Scan type : Progressive
  33. Bits/(Pixel*Frame) : 0.168
  34. Stream size : 5.75 GiB (87%)
  35. Language : English (US)
  36. Default : Yes
  37. Forced : No
  38. Color range : Limited
  39. Color primaries : BT.709
  40. Transfer characteristics : BT.709
  41. Matrix coefficients : BT.709
  42. Audio
  43. ID : 2
  44. Format : E-AC-3 JOC
  45. Format/Info : Enhanced AC-3 with Joint Object Coding
  46. Commercial name : Dolby Digital Plus with Dolby Atmos
  47. Codec ID : A_EAC3
  48. Duration : 2 h 10 min
  49. Bit rate mode : Constant
  50. Bit rate : 768 kb/s
  51. Channel(s) : 6 channels
  52. Channel layout : L R C LFE Ls Rs
  53. Sampling rate : 48.0 kHz
  54. Frame rate : 31.250 FPS (1536 SPF)
  55. Compression mode : Lossy
  56. Delay relative to video : 23 s 668 ms
  57. Stream size : 718 MiB (11%)
  58. Language : English
  59. Service kind : Complete Main
  60. Default : Yes
  61. Forced : No
  62. Complexity index : 16
  63. Number of dynamic objects : 15
  64. Bed channel count : 1 channel
  65. Bed channel configuration : LFE
  66. Text #1
  67. ID : 3
  68. Format : UTF-8
  69. Codec ID : S_TEXT/UTF8
  70. Codec ID/Info : UTF-8 Plain Text
  71. Language : English (US)
  72. Default : No
  73. Forced : No
  74. Text #2
  75. ID : 4
  76. Format : UTF-8
  77. Codec ID : S_TEXT/UTF8
  78. Codec ID/Info : UTF-8 Plain Text
  79. Title : SDH
  80. Language : English (US)
  81. Default : No
  82. Forced : No
  83. Text #3
  84. ID : 5
  85. Format : UTF-8
  86. Codec ID : S_TEXT/UTF8
  87. Codec ID/Info : UTF-8 Plain Text
  88. Title : Latin American
  89. Language : Spanish (Latin America)
  90. Default : No
  91. Forced : No
  92. Menu
  93. 00:00:00.000 : en:Chapter 01
  94. 00:10:53.403 : en:Chapter 02
  95. 00:21:13.398 : en:Chapter 03
  96. 00:30:40.215 : en:Chapter 04
  97. 00:41:09.844 : en:Chapter 05
  98. 00:51:17.619 : en:Chapter 06
  99. 01:03:53.708 : en:Chapter 07
  100. 01:10:52.377 : en:Chapter 08
  101. 01:20:11.519 : en:Chapter 09
  102. 01:30:57.499 : en:Chapter 10
  103. 01:41:13.782 : en:Chapter 11
  104. 01:52:10.021 : en:Chapter 12
  105. 02:04:29.094 : en:Chapter 13
复制代码









回复

使用道具 举报

蓝光币
681
发表于 2024-1-28 20:27:47 | 显示全部楼层
楼主发贴辛苦了,谢谢楼主分享!我觉得蓝光电影网是注册对了!
回复

使用道具 举报

懒得打字嘛,点击右侧快捷回复 【右侧内容,后台自定义】
您需要登录后才可以回帖 登录 | 立即加入

本版积分规则

Archiver| |网站地图

Copyright © 2024 Comsenz Inc. Powered by 蓝光电影网

本站内容由用户自主分享和转载自互联网,转载目的在于传递更多信息,并不代表本网赞同其观点和对其真实性负责。

如有侵权、违反国家法律政策行为,请联系我们,我们会第一时间及时清除和处理!

举报反馈邮箱:4k1080.com@gmail.com

快速回复 返回顶部 返回列表