找回密码

查看: 2335|回复: 11

[2160p-WEB] 解放1:炮火弧线 [国语/俄语][中字].Освобождение.Огненная.дуга.1968.WEBRip.2160p.x264.3Audio.AC3-TAG 10.11GB

[复制链接]
蓝光币
2048
发表于 2024-1-28 23:27:20 | 显示全部楼层 |阅读模式
束缚1:炮火弧线 [国语/俄语][中字].Освобождение.Огненная.дуга.1968.WEBRip.2160p.x264.3Audio.AC3-TAG 10.11GB-1.jpg

◎译  名 束缚1:炮火弧线
◎片  名 Освобождение: Огненная дуга
◎年  代 1970
◎产  地 苏联
◎类  别 历史 / 战争
◎语  言 俄语
◎上映日期 1970-05-07(苏联)
◎IMDb评分  7.4/10 from 394 users
◎IMDb链接  https://www.imdb.com/title/tt5300238/
◎豆瓣评分 8.6/10 from 859 users
◎豆瓣链接 https://movie.douban.com/subject/35480129/
◎片  长 93分钟
◎导  演 尤里·奥泽洛夫 Yuri Ozerov
◎编  剧 尤里·邦达列夫 Yuri Bondarev
◎主  演 拉里莎·戈卢布金娜 Larisa Golubkina

◎简  介

  大型历史电影史诗《束缚》由五部电影组成。第一部电影《炮火弧线》报告了1943年炎天库尔斯克弧线的一场大战。这是第二次天下大战历史上范围最大的坦克战争。除了人物的小我命运外,影片还展现了战役排场、总部和情报机构的活动,以及那些在火线和前方工作的人。
  1. General
  2. Unique ID : 238184238240906382020056820731641145655 (0xB3309D9C9C0D3850929F6B5F95E92937)
  3. Complete name : 束缚第一部:炮火弧线 Освобождение Огненная дуга (1968) WEBRip 2160p 3audio-baimei.mkv
  4. Format : Matroska
  5. Format version : Version 4
  6. File size : 10.1 GiB
  7. Duration : 1 h 31 min
  8. Overall bit rate : 15.8 Mb/s
  9. Movie name : Освобождение: Огненная дуга
  10. Encoded date : UTC 2021-01-29 02:03:14
  11. Writing application : mkvmerge v8.5.2 ('Crosses') 64bit
  12. Writing library : libebml v1.3.3 + libmatroska v1.4.4 / IDMmkvlib0.1
  13. Language : und

  14. Video
  15. ID : 1
  16. Format : VP9
  17. Codec ID : V_VP9
  18. Duration : 1 h 31 min
  19. Bit rate : 14.9 Mb/s
  20. Width : 3 840 pixels
  21. Height : 2 160 pixels
  22. Display aspect ratio : 16:9
  23. Frame rate mode : Constant
  24. Frame rate : 24.000 FPS
  25. Bits/(Pixel*Frame) : 0.075
  26. Stream size : 9.58 GiB (95%)
  27. Title : Освобождение Огненная дуга
  28. Language : Russian
  29. Default : Yes
  30. Forced : No

  31. Audio #1
  32. ID : 2
  33. Format : AC-3
  34. Format/Info : Audio Coding 3
  35. Commercial name : Dolby Digital
  36. Codec ID : A_AC3
  37. Duration : 1 h 31 min
  38. Bit rate mode : Constant
  39. Bit rate : 256 kb/s
  40. Channel(s) : 2 channels
  41. Channel layout : L R
  42. Sampling rate : 48.0 kHz
  43. Frame rate : 31.250 FPS (1536 SPF)
  44. Compression mode : Lossy
  45. Stream size : 168 MiB (2%)
  46. Title : 上译
  47. Language : Chinese
  48. Service kind : Complete Main
  49. Default : Yes
  50. Forced : Yes

  51. Audio #2
  52. ID : 3
  53. Format : AC-3
  54. Format/Info : Audio Coding 3
  55. Commercial name : Dolby Digital
  56. Codec ID : A_AC3
  57. Duration : 1 h 31 min
  58. Bit rate mode : Constant
  59. Bit rate : 192 kb/s
  60. Channel(s) : 2 channels
  61. Channel layout : L R
  62. Sampling rate : 48.0 kHz
  63. Frame rate : 31.250 FPS (1536 SPF)
  64. Compression mode : Lossy
  65. Stream size : 126 MiB (1%)
  66. Title : 央视
  67. Language : Chinese
  68. Service kind : Complete Main
  69. Default : No
  70. Forced : No

  71. Audio #3
  72. ID : 4
  73. Format : AC-3
  74. Format/Info : Audio Coding 3
  75. Commercial name : Dolby Digital
  76. Codec ID : A_AC3
  77. Duration : 1 h 31 min
  78. Bit rate mode : Constant
  79. Bit rate : 256 kb/s
  80. Channel(s) : 2 channels
  81. Channel layout : L R
  82. Sampling rate : 48.0 kHz
  83. Frame rate : 31.250 FPS (1536 SPF)
  84. Compression mode : Lossy
  85. Stream size : 168 MiB (2%)
  86. Language : Russian
  87. Service kind : Complete Main
  88. Default : No
  89. Forced : No

  90. Audio #4
  91. ID : 5
  92. Format : Opus
  93. Codec ID : A_OPUS
  94. Duration : 1 h 31 min
  95. Bit rate : 123 kb/s
  96. Channel(s) : 2 channels
  97. Channel layout : L R
  98. Sampling rate : 48.0 kHz
  99. Frame rate : 50.000 FPS (960 SPF)
  100. Compression mode : Lossy
  101. Stream size : 80.6 MiB (1%)
  102. Language : Russian
  103. Default : No
  104. Forced : No

  105. Text
  106. ID : 6
  107. Format : UTF-8
  108. Codec ID : S_TEXT/UTF8
  109. Codec ID/Info : UTF-8 Plain Text
  110. Duration : 1 h 31 min
  111. Bit rate : 39 b/s
  112. Count of elements : 677
  113. Stream size : 26.7 KiB (0%)
  114. Language : Chinese
  115. Default : Yes
  116. Forced : No
复制代码
束缚1:炮火弧线 [国语/俄语][中字].Освобождение.Огненная.дуга.1968.WEBRip.2160p.x264.3Audio.AC3-TAG 10.11GB-2.jpg








回复

使用道具 举报

蓝光币
160
发表于 2024-1-29 00:39:03 | 显示全部楼层
天哪,居然能有这个资源。太感谢了!
回复

使用道具 举报

蓝光币
855
发表于 2024-1-30 08:16:10 | 显示全部楼层
楼主发贴辛苦了,谢谢楼主分享!我觉得蓝光电影网是注册对了!
回复

使用道具 举报

蓝光币
855
发表于 2024-1-31 08:15:05 | 显示全部楼层
楼主发贴辛苦了,谢谢楼主分享!我觉得蓝光电影网是注册对了!
回复

使用道具 举报

蓝光币
208
发表于 2024-2-1 11:16:58 | 显示全部楼层
这个是好东西啊,谢谢分享!
回复

使用道具 举报

蓝光币
681
发表于 2024-2-3 21:56:04 | 显示全部楼层

楼主,大恩不言谢了!蓝光电影网是最棒的!
回复

使用道具 举报

蓝光币
2205
发表于 2024-2-4 08:29:15 | 显示全部楼层
不错,收下了。
回复

使用道具 举报

蓝光币
1518
发表于 2024-2-5 22:47:33 | 显示全部楼层

~ 珍惜+支持 ~
回复

使用道具 举报

蓝光币
130
发表于 2024-2-6 09:19:14 | 显示全部楼层

我看不错噢 谢谢楼主!蓝光电影网越来越好!
回复

使用道具 举报

蓝光币
47
发表于 2024-2-13 15:37:24 | 显示全部楼层
谢谢楼主
回复

使用道具 举报

懒得打字嘛,点击右侧快捷回复 【右侧内容,后台自定义】
您需要登录后才可以回帖 登录 | 立即加入

本版积分规则

Archiver| |网站地图

Copyright © 2024 Comsenz Inc. Powered by 蓝光电影网

本站内容由用户自主分享和转载自互联网,转载目的在于传递更多信息,并不代表本网赞同其观点和对其真实性负责。

如有侵权、违反国家法律政策行为,请联系我们,我们会第一时间及时清除和处理!

举报反馈邮箱:4k1080.com@gmail.com

快速回复 返回顶部 返回列表