找回密码

查看: 1480|回复: 8

[2160p-WEB] 解放3:主攻方向 [国语/俄语][中字].Освобождение.Направление.главного.удара.1970.WEBRip.2160p.x264.3Audio.AC3-TAG 14.58GB

[复制链接]
蓝光币
2048
发表于 2024-1-28 23:46:10 | 显示全部楼层 |阅读模式
束缚3:主攻偏向 [国语/俄语][中字].Освобождение.Направление.главного.удара.1970.WEBRip.2160p.x264.3Audio.AC3-TAG 14.58GB-1.jpg

◎译  名 束缚3:主攻偏向/Освобождение/Felszabadítás/Libération/Suuri läpimurto/Taistelu Berliinistä/束缚/Befreiung/Liberation/The Great Battle/Wyzwolenie
◎片  名 Освобождение: Направление главного удара
◎年  代 1971
◎产  地 苏联 / 东德 / 波兰
◎类  型 电影
◎类  别 剧情 / 恋爱 / 战争
◎语  言 俄语 / 德语 / 意大利语 / 波兰语 / 英语 / 法语
◎上映日期 1971-06-25(东德)
◎MPAA评级 T(Italy)
◎IMDb评分 7.7/10 from 425 users
◎IMDb链接 https://www.imdb.com/title/tt0198811/
◎豆瓣评分 8.7/10 from 3,231 users
◎豆瓣链接 https://movie.douban.com/subject/1440040/
◎片  长 123分钟
◎简  介

  为纪念苏联卫国战争30周年,前苏联莫斯科电影制片厂于1970—1972年,拍摄了一部可谓前苏联电影史上耗资最巨、范围最大、排场最为壮观的战争题材影片———《束缚》。影片从1943年苏联红军反扑(库尔斯克战争)起头,到强渡涅伯河,束缚基辅,最初霸占柏林。分为五集,片长快要8个小时。导演尤里·奥泽洛夫为夸大“纪实性”、“史诗性”,在影片中穿插了大量的实在历史文献镜头。影片还出现了很多历史人物,如此大林、朱可夫、罗斯福、丘吉尔、希特勒、墨索里尼等。此外,影片还蕴涵丰富动人的故工作节,从苏、德两军统帅到普通兵士,从苏军反扑到德军淹没,成功地表示了一种攻无不克、百战百胜的反动悲观主义精神。

  1. General
  2. Unique ID : 232982557728499455329218951596478152135 (0xAF46CEF63F1F4FBD9DF3ACCFC3F9BDC7)
  3. Complete name : 束缚第三部:主攻偏向 Освобождение Направление главного удара (1970) WEBRip 2160p 3audio-baimei.mkv
  4. Format : Matroska
  5. Format version : Version 4
  6. File size : 14.6 GiB
  7. Duration : 2 h 6 min
  8. Overall bit rate : 16.4 Mb/s
  9. Movie name : Освобождение: Направление главного удара
  10. Encoded date : UTC 2021-01-29 02:16:38
  11. Writing application : mkvmerge v8.5.2 ('Crosses') 64bit
  12. Writing library : libebml v1.3.3 + libmatroska v1.4.4 / IDMmkvlib0.1
  13. Language : und

  14. Video
  15. ID : 1
  16. Format : VP9
  17. Codec ID : V_VP9
  18. Duration : 2 h 6 min
  19. Bit rate : 15.6 Mb/s
  20. Width : 3 840 pixels
  21. Height : 2 160 pixels
  22. Display aspect ratio : 16:9
  23. Frame rate mode : Constant
  24. Frame rate : 24.000 FPS
  25. Bits/(Pixel*Frame) : 0.078
  26. Stream size : 13.8 GiB (95%)
  27. Title : Освобождение Направление главного удара
  28. Language : Russian
  29. Default : Yes
  30. Forced : No

  31. Audio #1
  32. ID : 2
  33. Format : AC-3
  34. Format/Info : Audio Coding 3
  35. Commercial name : Dolby Digital
  36. Codec ID : A_AC3
  37. Duration : 2 h 6 min
  38. Bit rate mode : Constant
  39. Bit rate : 256 kb/s
  40. Channel(s) : 2 channels
  41. Channel layout : L R
  42. Sampling rate : 48.0 kHz
  43. Frame rate : 31.250 FPS (1536 SPF)
  44. Compression mode : Lossy
  45. Stream size : 232 MiB (2%)
  46. Title : 上译
  47. Language : Chinese
  48. Service kind : Complete Main
  49. Default : Yes
  50. Forced : Yes

  51. Audio #2
  52. ID : 3
  53. Format : AC-3
  54. Format/Info : Audio Coding 3
  55. Commercial name : Dolby Digital
  56. Codec ID : A_AC3
  57. Duration : 2 h 6 min
  58. Bit rate mode : Constant
  59. Bit rate : 192 kb/s
  60. Channel(s) : 2 channels
  61. Channel layout : L R
  62. Sampling rate : 48.0 kHz
  63. Frame rate : 31.250 FPS (1536 SPF)
  64. Compression mode : Lossy
  65. Stream size : 174 MiB (1%)
  66. Title : 央视
  67. Language : Chinese
  68. Service kind : Complete Main
  69. Default : No
  70. Forced : No

  71. Audio #3
  72. ID : 4
  73. Format : AC-3
  74. Format/Info : Audio Coding 3
  75. Commercial name : Dolby Digital
  76. Codec ID : A_AC3
  77. Duration : 2 h 6 min
  78. Bit rate mode : Constant
  79. Bit rate : 256 kb/s
  80. Channel(s) : 2 channels
  81. Channel layout : L R
  82. Sampling rate : 48.0 kHz
  83. Frame rate : 31.250 FPS (1536 SPF)
  84. Compression mode : Lossy
  85. Stream size : 232 MiB (2%)
  86. Language : Russian
  87. Service kind : Complete Main
  88. Default : No
  89. Forced : No

  90. Audio #4
  91. ID : 5
  92. Format : Opus
  93. Codec ID : A_OPUS
  94. Duration : 2 h 6 min
  95. Bit rate : 125 kb/s
  96. Channel(s) : 2 channels
  97. Channel layout : L R
  98. Sampling rate : 48.0 kHz
  99. Frame rate : 50.000 FPS (960 SPF)
  100. Compression mode : Lossy
  101. Stream size : 114 MiB (1%)
  102. Language : Russian
  103. Default : No
  104. Forced : No

  105. Text
  106. ID : 6
  107. Format : UTF-8
  108. Codec ID : S_TEXT/UTF8
  109. Codec ID/Info : UTF-8 Plain Text
  110. Duration : 2 h 6 min
  111. Bit rate : 42 b/s
  112. Count of elements : 1018
  113. Stream size : 39.6 KiB (0%)
  114. Language : Chinese
  115. Default : Yes
  116. Forced : No
复制代码
束缚3:主攻偏向 [国语/俄语][中字].Освобождение.Направление.главного.удара.1970.WEBRip.2160p.x264.3Audio.AC3-TAG 14.58GB-2.jpg








回复

使用道具 举报

蓝光币
859
发表于 2024-1-29 08:07:29 | 显示全部楼层
楼主发贴辛苦了,谢谢楼主分享!我觉得蓝光电影网是注册对了!
回复

使用道具 举报

蓝光币
855
发表于 2024-1-30 08:13:10 | 显示全部楼层
楼主发贴辛苦了,谢谢楼主分享!我觉得蓝光电影网是注册对了!
回复

使用道具 举报

蓝光币
857
发表于 2024-1-30 08:22:04 | 显示全部楼层
楼主发贴辛苦了,谢谢楼主分享!我觉得蓝光电影网是注册对了!
回复

使用道具 举报

蓝光币
150
发表于 2024-1-30 10:30:23 | 显示全部楼层

楼主太厉害了!楼主,电影应该很好看我觉得蓝光电影网真是个好地方!
回复

使用道具 举报

蓝光币
1528
发表于 2024-1-31 23:19:25 | 显示全部楼层

~ 珍惜+支持 ~
回复

使用道具 举报

蓝光币
957
发表于 2024-2-1 08:53:13 | 显示全部楼层

楼主太厉害了!楼主,电影应该很好看我觉得蓝光电影网真是个好地方!
回复

使用道具 举报

蓝光币
688
发表于 2024-2-2 21:35:10 | 显示全部楼层

楼主,我太崇拜你了!我想我是一天也不能离开蓝光电影网。
回复

使用道具 举报

蓝光币
99
发表于 2024-2-21 14:55:31 | 显示全部楼层
太好了,喜欢这类电影,看文件挺大的,应该比较清楚,我硬盘上也有这部,不是很清楚,不知道能不能提供  莫斯科保卫战,我现在存的不太清楚。谢谢!
回复

使用道具 举报

懒得打字嘛,点击右侧快捷回复 【右侧内容,后台自定义】
您需要登录后才可以回帖 登录 | 立即加入

本版积分规则

Archiver| |网站地图

Copyright © 2024 Comsenz Inc. Powered by 蓝光电影网

本站内容由用户自主分享和转载自互联网,转载目的在于传递更多信息,并不代表本网赞同其观点和对其真实性负责。

如有侵权、违反国家法律政策行为,请联系我们,我们会第一时间及时清除和处理!

举报反馈邮箱:4k1080.com@gmail.com

快速回复 返回顶部 返回列表