找回密码

查看: 2328|回复: 27

[动作] 守夜人.Night.Watch.2004.1080p.BluRay.HEVC.DTS.5.1.x265-PANAM 8.84GB

[复制链接]
蓝光币
2048
发表于 2024-2-7 13:53:18 | 显示全部楼层 |阅读模式


◎译  名 守夜人 / 决战夜(台) / Night Watch / Nochnoy dozor
◎片  名 Ночной дозор
◎年  代 2004
◎产  地 俄罗斯
◎类  别 行动 / 奇异
◎语  言 俄语 / 英语
◎上映日期 2004-07-08
◎IMDb评星  ★★★★★★✦☆☆☆
◎IMDb评分  6.4/10 from 55,202 users
◎IMDb链接  https://www.imdb.com/title/tt0403358/
◎豆瓣评星 ★★★✦☆
◎豆瓣评分 7.0/10 from 12,902 users
◎豆瓣链接 https://movie.douban.com/subject/1414803/
◎片  长 114 分钟
◎导  演 提莫·贝克曼贝托夫 / Timur Bekmambetov
◎演  员 康斯坦丁·哈宾斯基 / Konstantin Khabensky
      弗拉基米尔·缅绍夫 / Vladimir Menshov
      阿雷克西·查多夫 / Aleksey Chadov
      Rimma Markova Rimma Markova
      玛丽亚·米罗诺娃 / Mariya Mironova
      Dmitriy Martynov Dmitriy Martynov
      Aleksey Maklakov Aleksey Maklakov
      亚历山大·斯莫勒克 / Aleksandr Samoylenko
      安娜·思卢 / Anna Slyu
      塔蒂亚娜·申科娜 / Tatyana Shchankina
      维克多·维尔比斯基 / Viktor Verzhbitskiy
      Ilya Lagutenko Ilya Lagutenko
      加林娜·秋宁娜 / Galina Tyunina
      安娜·杜布罗夫斯卡娅 / Anna Dubrovskaya
      玛利亚·巴洛申娜 / Mariya Poroshina
      让娜·福利斯克 / Zhanna Friske
      尤里·库琴科 / Yuriy Kutsenko
      瓦列里·佐洛图欣 / Valeriy Zolotukhin
      叶卡捷琳娜·马利科娃 / Ekaterina Malikova
◎编  剧 提莫·贝克曼贝托夫 / Timur Bekmambetov
      莱塔·卡罗格里迪斯 / Laeta Kalogridis
◎剪  辑 德米特里·基谢廖夫 / Dmitriy Kiselev
◎简  介 
  影片是按照谢尔盖·卢科扬涅科的三部曲中的第一部《守夜人》改编。
  光亮军队与黑暗军队签定了一项为期一千年的免战合约。一千年后,两支军队的首领格谢尔(符拉季米尔·门少夫 Vladimir Menshov 饰)和扎乌龙(维克多尔·维尔热宾茨基 Valeri Zolotukhin 饰)生活在本日的莫斯科。守夜人跟踪黑暗的异己势力,保持善与恶之间的平衡;而守日人则是监视光亮气力的活动,一旦善恶比例失衡就会引发战争、反动、扑灭甚至全天下的灾难。菜鸟守夜人安东·格洛节茨基(康斯坦丁·哈宾斯基 Konstantin Khabenskiy 饰)的监视工具是吸血鬼科斯佳(阿雷克西·查多夫 Aleksey Chadov 饰)。小男孩叶戈尔出现了,他具有着打破光亮黑暗两派平衡的气力,谁获得他城市获得最初的成功。为了争取终极气力的人魔大战起头了,自此天下起头解体……
  叶戈尔将走向光亮还是走向黑暗?
◎台词金句
  Darya, Witch:  Little Masha! My little girl! Help! Masha! Masha! Help!
  Transformer-Mage Ilya:  Go away! Go away, you filth! I'll rip your little head off!
  --------------------------------------------------------------------------------
  Vampire, Kostya's father: Why did you bring him?
  Kostya: He became like us.
  Vampire, Kostya's father: No, Kostya. He's a Light one. And Light ones only drink blood in one situation... when they're hunting those like us.
  --------------------------------------------------------------------------------
  Anton Gorodetsky: Night Watch! Everyone step out of the the Twilight!
  --------------------------------------------------------------------------------
  Geser: ...And so it will be, until a man emerges who is meant to become the Great One. And, if he chooses the side of Light, then Light will win. But, those, to whom the truth has been revealed, say that he will choose Darkness. For it is easier to kill the Light within oneself, than to scatter the Darkness around... The prophecies are coming true.
  --------------------------------------------------------------------------------
  Vampiress Larisa, initiate:  Give it to me!
  Alisa Donnikova: What, you've sunk to pig's blood?
  Vampiress Larisa, initiate: Give it to me!
  Alisa Donnikova: Andrey taught you how to call.
  Vampiress Larisa, initiate: He taught me, he taught me. Give it to me!
  Alisa Donnikova: The boy succumbed to your call. Lure him out, and when he's in your hands, demand that they bring the one who killed your Andrey.
  Vampiress Larisa, initiate: My Andrey... Give it to me, please. Well, give it here.
  Alisa Donnikova: Do you want revenge?
  Vampiress Larisa, initiate: Give it, give it here.
  Day Watch agent: Listen, don't torture her.
  Vampiress Larisa, initiate: Give it here, please...
  Alisa Donnikova:  Now she'll find him, for sure.
  Day Watch agent: Just how is she going to find him?
  Vampiress Larisa, initiate: She'll find him... like a dog.
◎幕后揭秘
  本片是三部曲中的第一部,被一些俄国影迷视为俄国的《魔戒》,中心有大量殊效(部分前期建造在洛杉矶完成),模仿好莱坞的痕迹很是明显,在俄国市场反应很是激烈,打破好莱坞影片在当地的最高票房记录,其贸易意义相当于《豪杰》在中国电影市场。虽然它的建造费只要四百万美圆,但上映前三个星期票房到达1300万美圆,开创了苏联解体后的俄国大建造。
  1. General
  2. Unique ID                                : 14641255933359916382950082007017687153 (0xB03CDA68BEE4E7BC2C72917A27F8871)
  3. Complete name                            : Night.Watch.2004.1080p.BluRay.HEVC.DTS.5.1.x265-PANAM.mkv
  4. Format                                   : Matroska
  5. Format version                           : Version 4
  6. File size                                : 8.84 GiB
  7. Duration                                 : 1 h 54 min
  8. Overall bit rate                         : 11.1 Mb/s
  9. Frame rate                               : 23.976 FPS
  10. Writing library                          : Lavf57.3.100
  11. Video
  12. ID                                       : 1
  13. Format                                   : HEVC
  14. Format/Info                              : High Efficiency Video Coding
  15. Format profile                           : Main@L5@High
  16. Codec ID                                 : V_MPEGH/ISO/HEVC
  17. Duration                                 : 1 h 54 min
  18. Bit rate                                 : 9 852 kb/s
  19. Width                                    : 1 920 pixels
  20. Height                                   : 1 080 pixels
  21. Display aspect ratio                     : 16:9
  22. Frame rate mode                          : Constant
  23. Frame rate                               : 23.976 (24000/1001) FPS
  24. Color space                              : YUV
  25. Chroma subsampling                       : 4:2:0
  26. Bit depth                                : 8 bits
  27. Bits/(Pixel*Frame)                       : 0.198
  28. Stream size                              : 7.87 GiB (89%)
  29. Default                                  : Yes
  30. Forced                                   : No
  31. Color range                              : Limited
  32. Color primaries                          : BT.709
  33. Transfer characteristics                 : BT.709
  34. Matrix coefficients                      : BT.709
  35. Audio #1
  36. ID                                       : 2
  37. Format                                   : DTS
  38. Format/Info                              : Digital Theater Systems
  39. Codec ID                                 : A_DTS
  40. Duration                                 : 1 h 54 min
  41. Bit rate mode                            : Constant
  42. Bit rate                                 : 768 kb/s
  43. Channel(s)                               : 6 channels
  44. Channel layout                           : C L R Ls Rs LFE
  45. Sampling rate                            : 48.0 kHz
  46. Frame rate                               : 93.750 FPS (512 SPF)
  47. Bit depth                                : 24 bits
  48. Compression mode                         : Lossy
  49. Stream size                              : 628 MiB (7%)
  50. Title                                    : English
  51. Language                                 : English
  52. Default                                  : Yes
  53. Forced                                   : No
  54. Audio #2
  55. ID                                       : 3
  56. Format                                   : AC-3
  57. Format/Info                              : Audio Coding 3
  58. Commercial name                          : Dolby Digital
  59. Codec ID                                 : A_AC3
  60. Duration                                 : 1 h 54 min
  61. Bit rate mode                            : Constant
  62. Bit rate                                 : 224 kb/s
  63. Channel(s)                               : 2 channels
  64. Channel layout                           : L R
  65. Sampling rate                            : 48.0 kHz
  66. Frame rate                               : 31.250 FPS (1536 SPF)
  67. Bit depth                                : 16 bits
  68. Compression mode                         : Lossy
  69. Stream size                              : 183 MiB (2%)
  70. Title                                    : English
  71. Language                                 : English
  72. Service kind                             : Complete Main
  73. Default                                  : No
  74. Forced                                   : No
  75. Text #1
  76. ID                                       : 4
  77. Format                                   : PGS
  78. Codec ID                                 : S_HDMV/PGS
  79. Codec ID/Info                            : Picture based subtitle format used on BDs/HD-DVDs
  80. Title                                    : English
  81. Language                                 : English
  82. Default                                  : Yes
  83. Forced                                   : No
  84. Text #2
  85. ID                                       : 5
  86. Format                                   : PGS
  87. Codec ID                                 : S_HDMV/PGS
  88. Codec ID/Info                            : Picture based subtitle format used on BDs/HD-DVDs
  89. Title                                    : Portuguese
  90. Language                                 : Portuguese
  91. Default                                  : No
  92. Forced                                   : No
  93. Text #3
  94. ID                                       : 6
  95. Format                                   : PGS
  96. Codec ID                                 : S_HDMV/PGS
  97. Codec ID/Info                            : Picture based subtitle format used on BDs/HD-DVDs
  98. Title                                    : Spanish
  99. Language                                 : Spanish
  100. Default                                  : No
  101. Forced                                   : No
复制代码









回复

使用道具 举报

蓝光币
502
发表于 2024-2-10 19:43:34 | 显示全部楼层

论坛不能没有像楼主这样的人才啊!我会一直支持蓝光电影网。
回复

使用道具 举报

蓝光币
212
发表于 2024-2-11 01:04:37 | 显示全部楼层
楼主发贴辛苦了,谢谢楼主分享!我觉得蓝光电影网是注册对了!
回复

使用道具 举报

蓝光币
242
发表于 2024-2-12 01:00:30 | 显示全部楼层
谢谢分享!!!!!
回复

使用道具 举报

蓝光币
27
发表于 2024-2-14 14:34:04 | 显示全部楼层

感谢楼主的无私分享!要想蓝光电影网好 就靠你我他
回复

使用道具 举报

蓝光币
625
发表于 2024-2-15 06:47:32 | 显示全部楼层

楼主太厉害了!楼主,电影应该很好看我觉得蓝光电影网真是个好地方!
回复

使用道具 举报

蓝光币
577
发表于 2024-2-16 11:15:42 | 显示全部楼层

感谢楼主的无私分享!要想蓝光电影网好 就靠你我他
回复

使用道具 举报

蓝光币
847
发表于 2024-2-16 12:49:58 | 显示全部楼层
感谢楼主的无私分享!要想蓝光电影网好 就靠你我他
回复

使用道具 举报

蓝光币
277
发表于 2024-2-17 18:48:55 | 显示全部楼层
论坛不能没有像楼主这样的人才啊!我会一直支持蓝光电影网
回复

使用道具 举报

蓝光币
998
发表于 2024-2-19 13:50:09 | 显示全部楼层

既然你诚信诚意的推荐了,那我就勉为其难的看看吧!蓝光电影网不走平凡路。
回复

使用道具 举报

懒得打字嘛,点击右侧快捷回复 【右侧内容,后台自定义】
您需要登录后才可以回帖 登录 | 立即加入

本版积分规则

Archiver| |网站地图

Copyright © 2024 Comsenz Inc. Powered by 蓝光电影网

本站内容由用户自主分享和转载自互联网,转载目的在于传递更多信息,并不代表本网赞同其观点和对其真实性负责。

如有侵权、违反国家法律政策行为,请联系我们,我们会第一时间及时清除和处理!

举报反馈邮箱:4k1080.com@gmail.com

快速回复 返回顶部 返回列表