找回密码

查看: 563|回复: 8

[2160p] 芭比.Barbie.2023.Eng.Fre.Ger.Ita.Spa.Cat.Cze.Slo.Chi.Jpn.2160p.BluRay.Remux.HDR.HEVC.Atmos-SGF 74.75GB

[复制链接]
蓝光币
1925
发表于 2024-2-7 13:53:35 | 显示全部楼层 |阅读模式


◎译  名 芭比 / 芭比娃娃 / 芭比真人版 / 芭比娃娃真人版
◎片  名 Barbie
◎年  代 2023
◎产  地 美国 / 加拿大
◎类  别 笑剧 / 奇异 / 冒险
◎语  言 英语
◎上映日期 2023-07-09(洛杉矶首映) / 2023-07-21(美国/中国大陆)
◎IMDb评星  ★★★★★★★☆☆☆
◎IMDb评分  6.9/10 from 484,855 users
◎IMDb链接  https://www.imdb.com/title/tt1517268/
◎豆瓣评星 ★★★★☆
◎豆瓣评分 8.0/10 from 625,082 users
◎豆瓣链接 https://movie.douban.com/subject/4058939/
◎片  长 114分钟
◎导  演 格蕾塔·葛韦格 / Greta Gerwig
◎演  员 玛格特·罗比 / Margot Robbie | 饰 芭比 Barbie
      瑞恩·高斯林 / Ryan Gosling | 饰 肯 Ken
      亚美莉卡·费雷拉 / America Ferrera | 饰 葛洛莉亚 Gloria
      阿丽亚娜·格林布拉特 / Ariana Greenblatt | 饰 萨莎 Sasha
      凯特·麦克金农 / Kate McKinnon | 饰 怪人芭比 Barbie
      海伦·米伦 / Helen Mirren | 配 旁白 The Narrator‎
      威尔·法瑞尔 / Will Ferrell | 饰 美泰公司CEO Mattel CEO
      伊萨·雷 / Issa Rae | 饰 总统芭比 Barbie
      哈莉·尼夫 / Hari Nef | 饰 医生芭比 Barbie
      艾玛·麦基 / Emma Mackey | 饰 诺贝尔物理学奖得主芭比 Barbie
      亚历山德拉·希普 / Alexandra Shipp | 饰 作家芭比 Barbie
      莎朗·鲁妮 / Sharon Rooney | 饰 律师芭比 Barbie
      妮可拉·考夫兰 / Nicola Coughlan | 饰 交际官芭比 Barbie
      迈克尔·塞拉 / Michael Cera | 饰 艾伦 Allan
      康纳·斯温德尔 / Connor Swindells | 饰 阿龙·丁金斯 Aaron Dinkins
      舒提·盖特瓦 / Ncuti Gatwa | 饰 肯 Ken
      刘思慕 / Simu Liu | 饰 肯 Ken
      金斯利·本-阿迪尔 / Kingsley Ben-Adir | 饰 肯 Ken
      斯科特·埃文斯 / Scott Evans | 饰 肯 Ken
      杜阿·利帕 / Dua Lipa | 饰 美人鱼芭比 Barbie
      约翰·塞纳 / John Cena | 饰 美男鱼肯 Ken
      雷亚·普尔曼 / Rhea Perlman | 饰 露丝·汉德勒 Ruth Handler
      里图·阿亚 / Ritu Arya | 饰 普利策奖得主芭比 Barbie
      安娜·科鲁兹·凯恩 / Ana Cruz Kayne  | 饰 法官芭比 Barbie
      埃默拉尔德·芬内尔 / Emerald Fennell | 饰 米琪 Midge
      詹米·德米特鲁 / Jamie Demetriou | 饰 美泰公司高管 Mattel Executive
      安·罗斯 / Ann Roth
      玛瑞萨·阿贝拉 / Marisa Abela
      妮基塔·查达哈 / Nikkita Chadha
      安妮·玛莫罗 / Annie Mumolo
      麦肯纳·罗伯茨 / McKenna Roberts | 饰 Popular Girl #1
      汉娜·卡利克-布朗 / Hannah Khalique-Brown
      斯特林·琼斯 / Sterling Jones
      黛布·海特 / Deb Hiett | 饰 Female Doctor
      杰西卡·A·凯撒 / Jessica A. Caesar
      卢克· / 穆伦 Luke Mullen
      杰拉德琳·切瓦蕾 / Géraldine Chevalley
      拉姆赞·米亚 / Ramzan Miah
      贾斯汀·皮尔斯 / Justin Price | 饰 Business Man
      凯莉·里安·桑松 / Kelly Rian Sanson
      埃文·沙夫兰 / Evan Shafran
      维尔·梅里克 / Will Merrick
      亚当·雷 / Adam Ray
      格蕾丝·贾巴里 / Grace Jabbari | 饰 Dancer
◎编  剧 格蕾塔·葛韦格 / Greta Gerwig
      诺亚·鲍姆巴赫 / Noah Baumbach
◎制  片  人 汤姆·阿克雷 / Tom Ackerley
      罗比·布伦纳 / Robbie Brenner
      大卫·海曼 / David Heyman
      劳里·麦克唐纳 / Laurie MacDonald
      沃尔特·F·帕克斯 / Walter F. Parkes
      艾米·帕斯卡尔 / Amy Pascal
      玛格特·罗比 / Margot Robbie
       Christine Crais
       Jennifer Lane
      乔西·麦克纳马拉 / Josey McNamara
      格蕾塔·葛韦格 / Greta Gerwig
      诺亚·鲍姆巴赫 / Noah Baumbach
      凯特·亚当斯 / Cate Adams
       Richard Dickson
      托比·艾默里奇 / Toby Emmerich
       Ynon Kreiz
       Michael Sharp
       Courtenay Valenti
◎音  乐 马克·容森 / Mark Ronson
      安德鲁·怀亚特 / Andrew Wyatt
◎摄  影 罗德里戈·普列托 / Rodrigo Prieto
◎剪  辑 尼克·霍 / Nick Houy
◎选  角 露西·贝文 / Lucy Bevan
      艾莉森·琼斯 / Allison Jones
◎美  术 莎拉·格林伍德 / Sarah Greenwood
      安德鲁·马克斯·卡恩 / Andrew Max Cahn
      迪恩·克莱格 / Dean Clegg
       David Doran
       Jordana Finkel
       Joe Howard
       Katrina Mackay
       Hugh McClelland
       Gordon Stotz
       Mark Swain
       Clara Gomez del Moral
◎服  装 杰奎琳·杜兰 / Jacqueline Durran
◎化  妆  Kat Ali
       Aurora Bergere
       Laura Calvo
       Becky Cotton
◎动  画  Tom Kloucek
◎简  介 
  在梦幻浪漫的芭比乐园里,美丽自傲的芭比们逐日过着欢畅无忧的生活,她们活跃在每一个工作岗位,肯是点缀,女孩的集会才相当重要。直到某一天,我们的配角芭比(玛格特·罗比 Margot Robbie 饰)忽然提到了生死,她的完善生活毫无征象发生改变。她的口气不再清新,面庞起头犹豫憔悴,也没法轻盈地从顶楼飘落下来。经先辈点播,她意想到人类天下某小我和她建立着联系,而那小我的心情似乎正投射到芭比的身上来。
  为了找回已经的完善生活,芭比和肯(瑞恩·高斯林 Ryan Gosling 饰)辗转来到现实天下,并经过一番挫折见到了葛洛莉娅(亚美莉卡·费雷拉 America Ferrera 饰)母女,而肯也在见识到男权社会的魅力以后,心中升起要改变芭比乐园的动机……
◎获奖情况 
  第96届奥斯卡金像奖 (2024)
  最好影片(提名) 大卫·海曼,罗比·布伦纳,汤姆·阿克雷,玛格特·罗比
  最好男配角(提名) 瑞恩·高斯林
  最好女配角(提名) 亚美莉卡·费雷拉
  最好改编剧本(提名) 格蕾塔·葛韦格,诺亚·鲍姆巴赫
  最好艺术指导(提名) 莎拉·格林伍德,凯蒂·斯宾塞
  最好打扮设想(提名) 杰奎琳·杜兰
  最好原创歌曲(提名) 菲尼亚斯·奥康奈尔,碧丽·艾莉许,马克·容森,安德鲁·怀亚特
  第81届金球奖 (2024)
  电影类 最好音乐/笑剧片(提名)
  电影类 最好导演(提名) 格蕾塔·葛韦格
  电影类 音乐/笑剧片最好女配角(提名) 玛格特·罗比
  电影类 最好男配角(提名) 瑞恩·高斯林
  电影类 最好编剧(提名) 格蕾塔·葛韦格,诺亚·鲍姆巴赫
  电影类 最好原创歌曲 菲尼亚斯·奥康奈尔,碧丽·艾莉许
  电影类 最好原创歌曲(提名) 杜阿·利帕,马克·容森,安德鲁·怀亚特
  电影类 电影和票房成就奖
  第77届英国电影学院奖 (2024)
  电影奖 最好女配角(提名) 玛格特·罗比
  电影奖 最好男配角(提名) 瑞恩·高斯林
  电影奖 最好原创剧本(提名) 格蕾塔·葛韦格,诺亚·鲍姆巴赫
  电影奖 最好打扮设想(提名) 杰奎琳·杜兰
  电影奖 最好艺术指导(提名) 莎拉·格林伍德,凯蒂·斯宾塞
  第47届日本电影学院奖 (2024)
  最好外语片(提名)
  第76届美国导演工会奖 (2024)
  最好电影导演(提名) 格蕾塔·葛韦格
  第35届美国制片野生会奖 (2024)
  最好电影制片人奖(提名)
  第95届美国国家批评协会奖 (2023)
  最好摄影 罗德里戈·普列托
  第29届美国批评家挑选电影奖 (2024)
  最好影片(提名)
  最好导演(提名) 格蕾塔·葛韦格
  最好女配角(提名) 玛格特·罗比
  最好男配角(提名) 瑞恩·高斯林
  最好女配角(提名) 亚美莉卡·费雷拉
  最好青少年演员(提名) 阿丽亚娜·格林布拉特
  最好群戏(提名)
  最好笑剧片
  最好原创剧本 格蕾塔·葛韦格,诺亚·鲍姆巴赫
  最好摄影(提名) 罗德里戈·普列托
  最好剪辑(提名) 尼克·霍
  最好配乐(提名) 马克·容森,安德鲁·怀亚特
  最好歌曲
  最好美术指导 莎拉·格林伍德,凯蒂·斯宾塞
  最好打扮设想 杰奎琳·杜兰
  最好发型化装
  第33届哥谭自力电影奖 (2023)
  最好配角表演(提名) 瑞恩·高斯林
  第57届美国国家影评人协会奖 (2023)
  最好男配角(提名) 瑞恩·高斯林
  1. General
  2. Unique ID: 160145617651854670631626690940640687234 (0x787AEC8E87401BA33318B49CA113F482)
  3. Complete name: Barbie.2023.Eng.Fre.Ger.Ita.Spa.Cat.Cze.Slo.Chi.Jpn.2160p.BluRay.Remux.HDR.HEVC.Atmos-SGF.mkv
  4. Format: Matroska
  5. Format version: Version 4 / Version 2
  6. File size: 74.8 GiB
  7. Duration: 1 h 54 min
  8. Overall bit rate mode: Variable
  9. Overall bit rate: 93.8 Mb/s
  10. Frame rate: 23.976 FPS
  11. Encoded date: 2024-01-31 22:54:56 UTC
  12. Writing application: mkvmerge v82.0 ('I'm The President') 64-bit
  13. Writing library: libebml v1.4.5 + libmatroska v1.7.1
  14. Video
  15. ID: 1
  16. Format: HEVC
  17. Format/Info: High Efficiency Video Coding
  18. Format profile: Main 10@L5.1@High
  19. HDR format: SMPTE ST 2086, HDR10 compatible
  20. Codec ID: V_MPEGH/ISO/HEVC
  21. Duration: 1 h 54 min
  22. Bit rate: 69.8 Mb/s
  23. Width: 3 840 pixels
  24. Height: 2 160 pixels
  25. Display aspect ratio: 16:9
  26. Frame rate mode: Constant
  27. Frame rate: 23.976 (24000/1001) FPS
  28. Color space: YUV
  29. Chroma subsampling: 4:2:0 (Type 2)
  30. Bit depth: 10 bits
  31. Bits/(Pixel*Frame): 0.351
  32. Stream size: 55.6 GiB (74%)
  33. Default: Yes
  34. Forced: No
  35. Color range: Limited
  36. Color primaries: BT.2020
  37. Transfer characteristics: PQ
  38. Matrix coefficients: BT.2020 non-constant
  39. Mastering display color primar: Display P3
  40. Mastering display luminance: min: 0.0001 cd/m2, max: 1000 cd/m2
  41. Maximum Content Light Level: 446 cd/m2
  42. Maximum Frame-Average Light Le: 115 cd/m2
  43. Audio #1
  44. ID: 2
  45. Format: MLP FBA 16-ch
  46. Format/Info: Meridian Lossless Packing FBA with 16-channel presentation
  47. Commercial name: Dolby TrueHD with Dolby Atmos
  48. Codec ID: A_TRUEHD
  49. Duration: 1 h 54 min
  50. Bit rate mode: Variable
  51. Bit rate: 2 883 kb/s
  52. Maximum bit rate: 4 551 kb/s
  53. Channel(s): 8 channels
  54. Channel layout: L R C LFE Ls Rs Lb Rb
  55. Sampling rate: 48.0 kHz
  56. Frame rate: 1 200.000 FPS (40 SPF)
  57. Compression mode: Lossless
  58. Stream size: 2.30 GiB (3%)
  59. Title: English [Dolby TrueHD Atmos 7.1]
  60. Language: English
  61. Default: Yes
  62. Forced: No
  63. Number of dynamic objects: 11
  64. Bed channel count: 1 channel
  65. Bed channel configuration: LFE
  66. Audio #2
  67. ID: 3
  68. Format: AC-3
  69. Format/Info: Audio Coding 3
  70. Commercial name: Dolby Digital
  71. Codec ID: A_AC3
  72. Duration: 1 h 54 min
  73. Bit rate mode: Constant
  74. Bit rate: 640 kb/s
  75. Channel(s): 6 channels
  76. Channel layout: L R C LFE Ls Rs
  77. Sampling rate: 48.0 kHz
  78. Frame rate: 31.250 FPS (1536 SPF)
  79. Compression mode: Lossy
  80. Stream size: 522 MiB (1%)
  81. Title: English [Dolby Digital 5.1]
  82. Language: English
  83. Service kind: Complete Main
  84. Default: No
  85. Forced: No
  86. Audio #3
  87. ID: 4
  88. Format: AC-3
  89. Format/Info: Audio Coding 3
  90. Commercial name: Dolby Digital
  91. Codec ID: A_AC3
  92. Duration: 1 h 54 min
  93. Bit rate mode: Constant
  94. Bit rate: 640 kb/s
  95. Channel(s): 6 channels
  96. Channel layout: L R C LFE Ls Rs
  97. Sampling rate: 48.0 kHz
  98. Frame rate: 31.250 FPS (1536 SPF)
  99. Compression mode: Lossy
  100. Stream size: 522 MiB (1%)
  101. Title: English (United States) [Audio Description]
  102. Language: English (US)
  103. Service kind: Complete Main
  104. Default: No
  105. Forced: No
  106. Audio #4
  107. ID: 5
  108. Format: AC-3
  109. Format/Info: Audio Coding 3
  110. Commercial name: Dolby Digital
  111. Codec ID: A_AC3
  112. Duration: 1 h 54 min
  113. Bit rate mode: Constant
  114. Bit rate: 640 kb/s
  115. Channel(s): 6 channels
  116. Channel layout: L R C LFE Ls Rs
  117. Sampling rate: 48.0 kHz
  118. Frame rate: 31.250 FPS (1536 SPF)
  119. Compression mode: Lossy
  120. Stream size: 522 MiB (1%)
  121. Title: English (United Kingdom) [Audio Description]
  122. Language: English (GB)
  123. Service kind: Complete Main
  124. Default: No
  125. Forced: No
  126. Audio #5
  127. ID: 6
  128. Format: MLP FBA 16-ch
  129. Format/Info: Meridian Lossless Packing FBA with 16-channel presentation
  130. Commercial name: Dolby TrueHD with Dolby Atmos
  131. Codec ID: A_TRUEHD
  132. Duration: 1 h 54 min
  133. Bit rate mode: Variable
  134. Bit rate: 2 794 kb/s
  135. Maximum bit rate: 4 188 kb/s
  136. Channel(s): 8 channels
  137. Channel layout: L R C LFE Ls Rs Lb Rb
  138. Sampling rate: 48.0 kHz
  139. Frame rate: 1 200.000 FPS (40 SPF)
  140. Compression mode: Lossless
  141. Stream size: 2.23 GiB (3%)
  142. Title: French (France) [Dolby TrueHD Atmos 7.1]
  143. Language: French (FR)
  144. Default: No
  145. Forced: No
  146. Number of dynamic objects: 11
  147. Bed channel count: 1 channel
  148. Bed channel configuration: LFE
  149. Audio #6
  150. ID: 7
  151. Format: AC-3
  152. Format/Info: Audio Coding 3
  153. Commercial name: Dolby Digital
  154. Codec ID: A_AC3
  155. Duration: 1 h 54 min
  156. Bit rate mode: Constant
  157. Bit rate: 640 kb/s
  158. Channel(s): 6 channels
  159. Channel layout: L R C LFE Ls Rs
  160. Sampling rate: 48.0 kHz
  161. Frame rate: 31.250 FPS (1536 SPF)
  162. Compression mode: Lossy
  163. Stream size: 522 MiB (1%)
  164. Title: French (France) [Dolby Digital 5.1]
  165. Language: French (FR)
  166. Service kind: Complete Main
  167. Default: No
  168. Forced: No
  169. Audio #7
  170. ID: 8
  171. Format: AC-3
  172. Format/Info: Audio Coding 3
  173. Commercial name: Dolby Digital
  174. Codec ID: A_AC3
  175. Duration: 1 h 54 min
  176. Bit rate mode: Constant
  177. Bit rate: 640 kb/s
  178. Channel(s): 6 channels
  179. Channel layout: L R C LFE Ls Rs
  180. Sampling rate: 48.0 kHz
  181. Frame rate: 31.250 FPS (1536 SPF)
  182. Compression mode: Lossy
  183. Stream size: 522 MiB (1%)
  184. Title: French (Canada) [Dolby Digital 5.1]
  185. Language: French (CA)
  186. Service kind: Complete Main
  187. Default: No
  188. Forced: No
  189. Audio #8
  190. ID: 9
  191. Format: MLP FBA 16-ch
  192. Format/Info: Meridian Lossless Packing FBA with 16-channel presentation
  193. Commercial name: Dolby TrueHD with Dolby Atmos
  194. Codec ID: A_TRUEHD
  195. Duration: 1 h 54 min
  196. Bit rate mode: Variable
  197. Bit rate: 2 922 kb/s
  198. Maximum bit rate: 4 662 kb/s
  199. Channel(s): 8 channels
  200. Channel layout: L R C LFE Ls Rs Lb Rb
  201. Sampling rate: 48.0 kHz
  202. Frame rate: 1 200.000 FPS (40 SPF)
  203. Compression mode: Lossless
  204. Stream size: 2.33 GiB (3%)
  205. Title: German [Dolby TrueHD Atmos 7.1]
  206. Language: German
  207. Default: No
  208. Forced: No
  209. Number of dynamic objects: 11
  210. Bed channel count: 1 channel
  211. Bed channel configuration: LFE
  212. Audio #9
  213. ID: 10
  214. Format: AC-3
  215. Format/Info: Audio Coding 3
  216. Commercial name: Dolby Digital
  217. Codec ID: A_AC3
  218. Duration: 1 h 54 min
  219. Bit rate mode: Constant
  220. Bit rate: 640 kb/s
  221. Channel(s): 6 channels
  222. Channel layout: L R C LFE Ls Rs
  223. Sampling rate: 48.0 kHz
  224. Frame rate: 31.250 FPS (1536 SPF)
  225. Compression mode: Lossy
  226. Stream size: 522 MiB (1%)
  227. Title: German [Dolby Digital 5.1]
  228. Language: German
  229. Service kind: Complete Main
  230. Default: No
  231. Forced: No
  232. Audio #10
  233. ID: 11
  234. Format: MLP FBA 16-ch
  235. Format/Info: Meridian Lossless Packing FBA with 16-channel presentation
  236. Commercial name: Dolby TrueHD with Dolby Atmos
  237. Codec ID: A_TRUEHD
  238. Duration: 1 h 54 min
  239. Bit rate mode: Variable
  240. Bit rate: 2 898 kb/s
  241. Maximum bit rate: 4 503 kb/s
  242. Channel(s): 8 channels
  243. Channel layout: L R C LFE Ls Rs Lb Rb
  244. Sampling rate: 48.0 kHz
  245. Frame rate: 1 200.000 FPS (40 SPF)
  246. Compression mode: Lossless
  247. Stream size: 2.31 GiB (3%)
  248. Title: Italian [Dolby TrueHD Atmos 7.1]
  249. Language: Italian
  250. Default: No
  251. Forced: No
  252. Number of dynamic objects: 11
  253. Bed channel count: 1 channel
  254. Bed channel configuration: LFE
  255. Audio #11
  256. ID: 12
  257. Format: AC-3
  258. Format/Info: Audio Coding 3
  259. Commercial name: Dolby Digital
  260. Codec ID: A_AC3
  261. Duration: 1 h 54 min
  262. Bit rate mode: Constant
  263. Bit rate: 640 kb/s
  264. Channel(s): 6 channels
  265. Channel layout: L R C LFE Ls Rs
  266. Sampling rate: 48.0 kHz
  267. Frame rate: 31.250 FPS (1536 SPF)
  268. Compression mode: Lossy
  269. Stream size: 522 MiB (1%)
  270. Title: Italian [Dolby Digital 5.1]
  271. Language: Italian
  272. Service kind: Complete Main
  273. Default: No
  274. Forced: No
  275. Audio #12
  276. ID: 13
  277. Format: MLP FBA 16-ch
  278. Format/Info: Meridian Lossless Packing FBA with 16-channel presentation
  279. Commercial name: Dolby TrueHD with Dolby Atmos
  280. Codec ID: A_TRUEHD
  281. Duration: 1 h 54 min
  282. Bit rate mode: Variable
  283. Bit rate: 2 888 kb/s
  284. Maximum bit rate: 4 812 kb/s
  285. Channel(s): 8 channels
  286. Channel layout: L R C LFE Ls Rs Lb Rb
  287. Sampling rate: 48.0 kHz
  288. Frame rate: 1 200.000 FPS (40 SPF)
  289. Compression mode: Lossless
  290. Stream size: 2.30 GiB (3%)
  291. Title: Spanish (Spain) [Dolby TrueHD Atmos 7.1]
  292. Language: Spanish (ES)
  293. Default: No
  294. Forced: No
  295. Number of dynamic objects: 11
  296. Bed channel count: 1 channel
  297. Bed channel configuration: LFE
  298. Audio #13
  299. ID: 14
  300. Format: AC-3
  301. Format/Info: Audio Coding 3
  302. Commercial name: Dolby Digital
  303. Codec ID: A_AC3
  304. Duration: 1 h 54 min
  305. Bit rate mode: Constant
  306. Bit rate: 640 kb/s
  307. Channel(s): 6 channels
  308. Channel layout: L R C LFE Ls Rs
  309. Sampling rate: 48.0 kHz
  310. Frame rate: 31.250 FPS (1536 SPF)
  311. Compression mode: Lossy
  312. Stream size: 522 MiB (1%)
  313. Title: Spanish (Spain) [Dolby Digital 5.1]
  314. Language: Spanish (ES)
  315. Service kind: Complete Main
  316. Default: No
  317. Forced: No
  318. Audio #14
  319. ID: 15
  320. Format: AC-3
  321. Format/Info: Audio Coding 3
  322. Commercial name: Dolby Digital
  323. Codec ID: A_AC3
  324. Duration: 1 h 54 min
  325. Bit rate mode: Constant
  326. Bit rate: 640 kb/s
  327. Channel(s): 6 channels
  328. Channel layout: L R C LFE Ls Rs
  329. Sampling rate: 48.0 kHz
  330. Frame rate: 31.250 FPS (1536 SPF)
  331. Compression mode: Lossy
  332. Stream size: 522 MiB (1%)
  333. Title: Spanish (Latin America) [Dolby Digital 5.1]
  334. Language: Spanish (Latin America)
  335. Service kind: Complete Main
  336. Default: No
  337. Forced: No
  338. Audio #15
  339. ID: 16
  340. Format: AC-3
  341. Format/Info: Audio Coding 3
  342. Commercial name: Dolby Digital
  343. Codec ID: A_AC3
  344. Duration: 1 h 54 min
  345. Bit rate mode: Constant
  346. Bit rate: 640 kb/s
  347. Channel(s): 6 channels
  348. Channel layout: L R C LFE Ls Rs
  349. Sampling rate: 48.0 kHz
  350. Frame rate: 31.250 FPS (1536 SPF)
  351. Compression mode: Lossy
  352. Stream size: 522 MiB (1%)
  353. Title: Catalan [Dolby Digital 5.1]
  354. Language: Catalan
  355. Service kind: Complete Main
  356. Default: No
  357. Forced: No
  358. Audio #16
  359. ID: 17
  360. Format: AC-3
  361. Format/Info: Audio Coding 3
  362. Commercial name: Dolby Digital
  363. Codec ID: A_AC3
  364. Duration: 1 h 54 min
  365. Bit rate mode: Constant
  366. Bit rate: 640 kb/s
  367. Channel(s): 6 channels
  368. Channel layout: L R C LFE Ls Rs
  369. Sampling rate: 48.0 kHz
  370. Frame rate: 31.250 FPS (1536 SPF)
  371. Compression mode: Lossy
  372. Stream size: 522 MiB (1%)
  373. Title: Czech [Dolby Digital 5.1]
  374. Language: Czech
  375. Service kind: Complete Main
  376. Default: No
  377. Forced: No
  378. Audio #17
  379. ID: 18
  380. Format: AC-3
  381. Format/Info: Audio Coding 3
  382. Commercial name: Dolby Digital
  383. Codec ID: A_AC3
  384. Duration: 1 h 54 min
  385. Bit rate mode: Constant
  386. Bit rate: 640 kb/s
  387. Channel(s): 6 channels
  388. Channel layout: L R C LFE Ls Rs
  389. Sampling rate: 48.0 kHz
  390. Frame rate: 31.250 FPS (1536 SPF)
  391. Compression mode: Lossy
  392. Stream size: 522 MiB (1%)
  393. Title: Slovak [Dolby Digital 5.1]
  394. Language: Slovak
  395. Service kind: Complete Main
  396. Default: No
  397. Forced: No
  398. Audio #18
  399. ID: 19
  400. Format: AC-3
  401. Format/Info: Audio Coding 3
  402. Commercial name: Dolby Digital
  403. Codec ID: A_AC3
  404. Duration: 1 h 54 min
  405. Bit rate mode: Constant
  406. Bit rate: 640 kb/s
  407. Channel(s): 6 channels
  408. Channel layout: L R C LFE Ls Rs
  409. Sampling rate: 48.0 kHz
  410. Frame rate: 31.250 FPS (1536 SPF)
  411. Compression mode: Lossy
  412. Stream size: 522 MiB (1%)
  413. Title: Chinese (Mandarin) [Dolby Digital 5.1]
  414. Language: Mandarin
  415. Service kind: Complete Main
  416. Default: No
  417. Forced: No
  418. Audio #19
  419. ID: 20
  420. Format: AC-3
  421. Format/Info: Audio Coding 3
  422. Commercial name: Dolby Digital
  423. Codec ID: A_AC3
  424. Duration: 1 h 54 min
  425. Bit rate mode: Constant
  426. Bit rate: 640 kb/s
  427. Channel(s): 6 channels
  428. Channel layout: L R C LFE Ls Rs
  429. Sampling rate: 48.0 kHz
  430. Frame rate: 31.250 FPS (1536 SPF)
  431. Compression mode: Lossy
  432. Stream size: 522 MiB (1%)
  433. Title: Japanese [Dolby Digital 5.1]
  434. Language: Japanese
  435. Service kind: Complete Main
  436. Default: No
  437. Forced: No
  438. Text #1
  439. ID: 21
  440. Format: PGS
  441. Muxing mode: zlib
  442. Codec ID: S_HDMV/PGS
  443. Codec ID/Info: Picture based subtitle format used on BDs/HD-DVDs
  444. Duration: 1 h 48 min
  445. Bit rate: 50.7 kb/s
  446. Frame rate: 0.696 FPS
  447. Count of elements: 4527
  448. Stream size: 39.3 MiB (0%)
  449. Title: English [Full]
  450. Language: English
  451. Default: No
  452. Forced: No
  453. Text #2
  454. ID: 22
  455. Format: PGS
  456. Muxing mode: zlib
  457. Codec ID: S_HDMV/PGS
  458. Codec ID/Info: Picture based subtitle format used on BDs/HD-DVDs
  459. Duration: 1 h 52 min
  460. Bit rate: 34.3 kb/s
  461. Frame rate: 0.531 FPS
  462. Count of elements: 3582
  463. Stream size: 27.6 MiB (0%)
  464. Title: French (France) [Full]
  465. Language: French (FR)
  466. Default: No
  467. Forced: No
  468. Text #3
  469. ID: 23
  470. Format: PGS
  471. Muxing mode: zlib
  472. Codec ID: S_HDMV/PGS
  473. Codec ID/Info: Picture based subtitle format used on BDs/HD-DVDs
  474. Duration: 1 h 38 min
  475. Bit rate: 3 059 b/s
  476. Frame rate: 0.050 FPS
  477. Count of elements: 292
  478. Stream size: 2.15 MiB (0%)
  479. Title: French (France) [Forced]
  480. Language: French (FR)
  481. Default: No
  482. Forced: No
  483. Text #4
  484. ID: 24
  485. Format: PGS
  486. Muxing mode: zlib
  487. Codec ID: S_HDMV/PGS
  488. Codec ID/Info: Picture based subtitle format used on BDs/HD-DVDs
  489. Duration: 1 h 52 min
  490. Bit rate: 34.3 kb/s
  491. Frame rate: 0.531 FPS
  492. Count of elements: 3582
  493. Stream size: 27.6 MiB (0%)
  494. Title: French (Canada) [Full]
  495. Language: French (CA)
  496. Default: No
  497. Forced: No
  498. Text #5
  499. ID: 25
  500. Format: PGS
  501. Muxing mode: zlib
  502. Codec ID: S_HDMV/PGS
  503. Codec ID/Info: Picture based subtitle format used on BDs/HD-DVDs
  504. Duration: 1 h 45 min
  505. Bit rate: 2 008 b/s
  506. Frame rate: 0.029 FPS
  507. Count of elements: 182
  508. Stream size: 1.52 MiB (0%)
  509. Title: French (Canada) [Forced]
  510. Language: French (CA)
  511. Default: No
  512. Forced: No
  513. Text #6
  514. ID: 26
  515. Format: PGS
  516. Muxing mode: zlib
  517. Codec ID: S_HDMV/PGS
  518. Codec ID/Info: Picture based subtitle format used on BDs/HD-DVDs
  519. Duration: 1 h 53 min
  520. Bit rate: 47.6 kb/s
  521. Frame rate: 0.482 FPS
  522. Count of elements: 3286
  523. Stream size: 38.7 MiB (0%)
  524. Title: German [Full]
  525. Language: German
  526. Default: No
  527. Forced: No
  528. Text #7
  529. ID: 27
  530. Format: PGS
  531. Muxing mode: zlib
  532. Codec ID: S_HDMV/PGS
  533. Codec ID/Info: Picture based subtitle format used on BDs/HD-DVDs
  534. Duration: 1 h 33 min
  535. Bit rate: 1 965 b/s
  536. Frame rate: 0.023 FPS
  537. Count of elements: 128
  538. Stream size: 1.31 MiB (0%)
  539. Title: German [Forced]
  540. Language: German
  541. Default: No
  542. Forced: No
  543. Text #8
  544. ID: 28
  545. Format: PGS
  546. Muxing mode: zlib
  547. Codec ID: S_HDMV/PGS
  548. Codec ID/Info: Picture based subtitle format used on BDs/HD-DVDs
  549. Duration: 1 h 48 min
  550. Bit rate: 47.2 kb/s
  551. Frame rate: 0.672 FPS
  552. Count of elements: 4366
  553. Stream size: 36.6 MiB (0%)
  554. Title: Italian [Full]
  555. Language: Italian
  556. Default: No
  557. Forced: No
  558. Text #9
  559. ID: 29
  560. Format: PGS
  561. Muxing mode: zlib
  562. Codec ID: S_HDMV/PGS
  563. Codec ID/Info: Picture based subtitle format used on BDs/HD-DVDs
  564. Duration: 1 h 33 min
  565. Bit rate: 3 072 b/s
  566. Frame rate: 0.045 FPS
  567. Count of elements: 252
  568. Stream size: 2.05 MiB (0%)
  569. Title: Italian [Forced]
  570. Language: Italian
  571. Default: No
  572. Forced: No
  573. Text #10
  574. ID: 30
  575. Format: PGS
  576. Muxing mode: zlib
  577. Codec ID: S_HDMV/PGS
  578. Codec ID/Info: Picture based subtitle format used on BDs/HD-DVDs
  579. Duration: 1 h 52 min
  580. Bit rate: 41.2 kb/s
  581. Frame rate: 0.556 FPS
  582. Count of elements: 3764
  583. Stream size: 33.2 MiB (0%)
  584. Title: Spanish (Spain) [Full]
  585. Language: Spanish (ES)
  586. Default: No
  587. Forced: No
  588. Text #11
  589. ID: 31
  590. Format: PGS
  591. Muxing mode: zlib
  592. Codec ID: S_HDMV/PGS
  593. Codec ID/Info: Picture based subtitle format used on BDs/HD-DVDs
  594. Duration: 1 h 50 min
  595. Bit rate: 4 642 b/s
  596. Frame rate: 0.064 FPS
  597. Count of elements: 426
  598. Stream size: 3.67 MiB (0%)
  599. Title: Spanish (Spain) [Forced]
  600. Language: Spanish (ES)
  601. Default: No
  602. Forced: No
  603. Text #12
  604. ID: 32
  605. Format: PGS
  606. Muxing mode: zlib
  607. Codec ID: S_HDMV/PGS
  608. Codec ID/Info: Picture based subtitle format used on BDs/HD-DVDs
  609. Duration: 1 h 52 min
  610. Bit rate: 43.4 kb/s
  611. Frame rate: 0.571 FPS
  612. Count of elements: 3862
  613. Stream size: 35.0 MiB (0%)
  614. Title: Spanish (Latin America) [Full]
  615. Language: Spanish (Latin America)
  616. Default: No
  617. Forced: No
  618. Text #13
  619. ID: 33
  620. Format: PGS
  621. Muxing mode: zlib
  622. Codec ID: S_HDMV/PGS
  623. Codec ID/Info: Picture based subtitle format used on BDs/HD-DVDs
  624. Duration: 1 h 45 min
  625. Bit rate: 4 271 b/s
  626. Frame rate: 0.064 FPS
  627. Count of elements: 404
  628. Stream size: 3.23 MiB (0%)
  629. Title: Spanish (Latin America) [Forced]
  630. Language: Spanish (Latin America)
  631. Default: No
  632. Forced: No
  633. Text #14
  634. ID: 34
  635. Format: PGS
  636. Muxing mode: zlib
  637. Codec ID: S_HDMV/PGS
  638. Codec ID/Info: Picture based subtitle format used on BDs/HD-DVDs
  639. Duration: 1 h 45 min
  640. Bit rate: 4 441 b/s
  641. Frame rate: 0.065 FPS
  642. Count of elements: 412
  643. Stream size: 3.36 MiB (0%)
  644. Title: Catalan [Forced]
  645. Language: Catalan
  646. Default: No
  647. Forced: No
  648. Text #15
  649. ID: 35
  650. Format: PGS
  651. Muxing mode: zlib
  652. Codec ID: S_HDMV/PGS
  653. Codec ID/Info: Picture based subtitle format used on BDs/HD-DVDs
  654. Duration: 1 h 52 min
  655. Bit rate: 40.1 kb/s
  656. Frame rate: 0.566 FPS
  657. Count of elements: 3832
  658. Stream size: 32.3 MiB (0%)
  659. Title: Czech [Full]
  660. Language: Czech
  661. Default: No
  662. Forced: No
  663. Text #16
  664. ID: 36
  665. Format: PGS
  666. Muxing mode: zlib
  667. Codec ID: S_HDMV/PGS
  668. Codec ID/Info: Picture based subtitle format used on BDs/HD-DVDs
  669. Duration: 1 h 45 min
  670. Bit rate: 4 661 b/s
  671. Frame rate: 0.068 FPS
  672. Count of elements: 430
  673. Stream size: 3.52 MiB (0%)
  674. Title: Czech [Forced]
  675. Language: Czech
  676. Default: No
  677. Forced: No
  678. Text #17
  679. ID: 37
  680. Format: PGS
  681. Muxing mode: zlib
  682. Codec ID: S_HDMV/PGS
  683. Codec ID/Info: Picture based subtitle format used on BDs/HD-DVDs
  684. Duration: 1 h 52 min
  685. Bit rate: 37.2 kb/s
  686. Frame rate: 0.549 FPS
  687. Count of elements: 3718
  688. Stream size: 30.0 MiB (0%)
  689. Title: Slovak [Full]
  690. Language: Slovak
  691. Default: No
  692. Forced: No
  693. Text #18
  694. ID: 38
  695. Format: PGS
  696. Muxing mode: zlib
  697. Codec ID: S_HDMV/PGS
  698. Codec ID/Info: Picture based subtitle format used on BDs/HD-DVDs
  699. Duration: 1 h 45 min
  700. Bit rate: 3 724 b/s
  701. Frame rate: 0.057 FPS
  702. Count of elements: 358
  703. Stream size: 2.80 MiB (0%)
  704. Title: Slovak [Forced]
  705. Language: Slovak
  706. Default: No
  707. Forced: No
  708. Text #19
  709. ID: 39
  710. Format: PGS
  711. Muxing mode: zlib
  712. Codec ID: S_HDMV/PGS
  713. Codec ID/Info: Picture based subtitle format used on BDs/HD-DVDs
  714. Duration: 1 h 52 min
  715. Bit rate: 38.9 kb/s
  716. Frame rate: 0.576 FPS
  717. Count of elements: 3898
  718. Stream size: 31.3 MiB (0%)
  719. Title: Chinese (Cantonese Traditional) [Full]
  720. Language: Cantonese (Hant)
  721. Default: No
  722. Forced: No
  723. Text #20
  724. ID: 40
  725. Format: PGS
  726. Muxing mode: zlib
  727. Codec ID: S_HDMV/PGS
  728. Codec ID/Info: Picture based subtitle format used on BDs/HD-DVDs
  729. Duration: 1 h 52 min
  730. Bit rate: 35.5 kb/s
  731. Frame rate: 0.570 FPS
  732. Count of elements: 3858
  733. Stream size: 28.6 MiB (0%)
  734. Title: Chinese (Mandarin Traditional) [Full]
  735. Language: Mandarin (Hant)
  736. Default: No
  737. Forced: No
  738. Text #21
  739. ID: 41
  740. Format: PGS
  741. Muxing mode: zlib
  742. Codec ID: S_HDMV/PGS
  743. Codec ID/Info: Picture based subtitle format used on BDs/HD-DVDs
  744. Duration: 1 h 53 min
  745. Bit rate: 42.8 kb/s
  746. Frame rate: 0.709 FPS
  747. Count of elements: 4838
  748. Stream size: 34.8 MiB (0%)
  749. Title: Chinese (Mandarin Simplified) [Full]
  750. Language: Mandarin (Hans)
  751. Default: No
  752. Forced: No
  753. Text #22
  754. ID: 42
  755. Format: PGS
  756. Muxing mode: zlib
  757. Codec ID: S_HDMV/PGS
  758. Codec ID/Info: Picture based subtitle format used on BDs/HD-DVDs
  759. Duration: 1 h 53 min
  760. Bit rate: 7 970 b/s
  761. Frame rate: 0.121 FPS
  762. Count of elements: 822
  763. Stream size: 6.48 MiB (0%)
  764. Title: Chinese (Mandarin Simplified) [Forced]
  765. Language: Mandarin (Hans)
  766. Default: No
  767. Forced: No
  768. Text #23
  769. ID: 43
  770. Format: PGS
  771. Muxing mode: zlib
  772. Codec ID: S_HDMV/PGS
  773. Codec ID/Info: Picture based subtitle format used on BDs/HD-DVDs
  774. Duration: 1 h 47 min
  775. Bit rate: 27.2 kb/s
  776. Frame rate: 0.550 FPS
  777. Count of elements: 3559
  778. Stream size: 21.0 MiB (0%)
  779. Title: Japanese [Full]
  780. Language: Japanese
  781. Default: No
  782. Forced: No
  783. Text #24
  784. ID: 44
  785. Format: PGS
  786. Muxing mode: zlib
  787. Codec ID: S_HDMV/PGS
  788. Codec ID/Info: Picture based subtitle format used on BDs/HD-DVDs
  789. Duration: 1 h 45 min
  790. Bit rate: 2 275 b/s
  791. Frame rate: 0.042 FPS
  792. Count of elements: 268
  793. Stream size: 1.72 MiB (0%)
  794. Title: Japanese [Forced]
  795. Language: Japanese
  796. Default: No
  797. Forced: No
  798. Text #25
  799. ID: 45
  800. Format: PGS
  801. Muxing mode: zlib
  802. Codec ID: S_HDMV/PGS
  803. Codec ID/Info: Picture based subtitle format used on BDs/HD-DVDs
  804. Duration: 1 h 52 min
  805. Bit rate: 35.1 kb/s
  806. Frame rate: 0.367 FPS
  807. Count of elements: 2484
  808. Stream size: 28.3 MiB (0%)
  809. Title: Danish [Full]
  810. Language: Danish
  811. Default: No
  812. Forced: No
  813. Text #26
  814. ID: 46
  815. Format: PGS
  816. Muxing mode: zlib
  817. Codec ID: S_HDMV/PGS
  818. Codec ID/Info: Picture based subtitle format used on BDs/HD-DVDs
  819. Duration: 1 h 52 min
  820. Bit rate: 35.6 kb/s
  821. Frame rate: 0.383 FPS
  822. Count of elements: 2592
  823. Stream size: 28.7 MiB (0%)
  824. Title: Dutch [Full]
  825. Language: Dutch
  826. Default: No
  827. Forced: No
  828. Text #27
  829. ID: 47
  830. Format: PGS
  831. Muxing mode: zlib
  832. Codec ID: S_HDMV/PGS
  833. Codec ID/Info: Picture based subtitle format used on BDs/HD-DVDs
  834. Duration: 1 h 52 min
  835. Bit rate: 40.8 kb/s
  836. Frame rate: 0.567 FPS
  837. Count of elements: 3838
  838. Stream size: 32.9 MiB (0%)
  839. Title: Finnish [Full]
  840. Language: Finnish
  841. Default: No
  842. Forced: No
  843. Text #28
  844. ID: 48
  845. Format: PGS
  846. Muxing mode: zlib
  847. Codec ID: S_HDMV/PGS
  848. Codec ID/Info: Picture based subtitle format used on BDs/HD-DVDs
  849. Duration: 1 h 52 min
  850. Bit rate: 37.4 kb/s
  851. Frame rate: 0.439 FPS
  852. Count of elements: 2972
  853. Stream size: 30.1 MiB (0%)
  854. Title: Norwegian [Full]
  855. Language: Norwegian
  856. Default: No
  857. Forced: No
  858. Text #29
  859. ID: 49
  860. Format: PGS
  861. Muxing mode: zlib
  862. Codec ID: S_HDMV/PGS
  863. Codec ID/Info: Picture based subtitle format used on BDs/HD-DVDs
  864. Duration: 1 h 52 min
  865. Bit rate: 37.1 kb/s
  866. Frame rate: 0.421 FPS
  867. Count of elements: 2848
  868. Stream size: 29.9 MiB (0%)
  869. Title: Swedish [Full]
  870. Language: Swedish
  871. Default: No
  872. Forced: No
  873. Text #30
  874. ID: 50
  875. Format: PGS
  876. Muxing mode: zlib
  877. Codec ID: S_HDMV/PGS
  878. Codec ID/Info: Picture based subtitle format used on BDs/HD-DVDs
  879. Duration: 1 h 52 min
  880. Bit rate: 35.1 kb/s
  881. Frame rate: 0.572 FPS
  882. Count of elements: 3870
  883. Stream size: 28.3 MiB (0%)
  884. Title: Korean [Full]
  885. Language: Korean
  886. Default: No
  887. Forced: No
  888. Menu
  889. 00:00:00.000: en:Chapter 01
  890. 00:11:14.090: en:Chapter 02
  891. 00:19:20.951: en:Chapter 03
  892. 00:29:55.335: en:Chapter 04
  893. 00:41:41.332: en:Chapter 05
  894. 00:51:30.670: en:Chapter 06
  895. 01:00:33.421: en:Chapter 07
  896. 01:11:06.470: en:Chapter 08
  897. 01:20:43.839: en:Chapter 09
  898. 01:31:06.711: en:Chapter 10
  899. 01:41:48.852: en:Chapter 11
  900. 01:47:19.724: en:Chapter 12
复制代码










回复

使用道具 举报

蓝光币
25
发表于 2024-2-8 12:29:51 | 显示全部楼层
感谢分享
回复

使用道具 举报

蓝光币
803
发表于 2024-2-11 12:16:36 | 显示全部楼层
楼主发贴辛苦了,谢谢楼主分享!我觉得蓝光电影网是注册对了!
回复

使用道具 举报

蓝光币
803
发表于 2024-2-13 14:49:00 | 显示全部楼层
楼主发贴辛苦了,谢谢楼主分享!我觉得蓝光电影网是注册对了!
回复

使用道具 举报

蓝光币
804
发表于 2024-2-15 16:01:16 | 显示全部楼层
楼主发贴辛苦了,谢谢楼主分享!我觉得蓝光电影网是注册对了!
回复

使用道具 举报

蓝光币
802
发表于 2024-2-17 17:30:58 | 显示全部楼层
楼主发贴辛苦了,谢谢楼主分享!我觉得蓝光电影网是注册对了!
回复

使用道具 举报

蓝光币
804
发表于 2024-2-19 19:17:56 | 显示全部楼层
楼主发贴辛苦了,谢谢楼主分享!我觉得蓝光电影网是注册对了!
回复

使用道具 举报

蓝光币
802
发表于 2024-2-21 19:15:12 | 显示全部楼层
楼主发贴辛苦了,谢谢楼主分享!我觉得蓝光电影网是注册对了!
回复

使用道具 举报

蓝光币
162
发表于 2024-2-21 22:46:18 | 显示全部楼层

这东西我收了!谢谢楼主!蓝光电影网真好!
回复

使用道具 举报

懒得打字嘛,点击右侧快捷回复 【右侧内容,后台自定义】
您需要登录后才可以回帖 登录 | 立即加入

本版积分规则

Archiver| |网站地图

Copyright © 2024 Comsenz Inc. Powered by 蓝光电影网

本站内容由用户自主分享和转载自互联网,转载目的在于传递更多信息,并不代表本网赞同其观点和对其真实性负责。

如有侵权、违反国家法律政策行为,请联系我们,我们会第一时间及时清除和处理!

举报反馈邮箱:4k1080.com@gmail.com

快速回复 返回顶部 返回列表