找回密码

查看: 858|回复: 12

[2160p] 蜘蛛侠:英雄无归.Spider-Man.No.Way.Home.2021.Eng.Fre.Ger.Ita.Por.Rus.Spa.Cze.Hun.Pol.Slo.Tha.Tur.Hin.Tam.Tel.2160p.BluRay.Remux.HDR.DV.HEVC.DTS-HD.MA.Atmos-SGF 81.72GB

[复制链接]
蓝光币
1917
发表于 2024-2-7 13:54:34 | 显示全部楼层 |阅读模式


◎译  名 蜘蛛侠:豪杰无归 / 蜘蛛侠:不战无归(港) / 蜘蛛人:无家日(台) / 新蜘蛛侠3 / 蜘蛛侠:无回之战 / 蜘蛛侠3:豪杰末路 / 蜘蛛侠3:无家可归 / Spider-Man 3 / Spider-Man: Phone Home / Spider-Man: Home-Wrecker / Spider-Man: Home Slice / Spider-Man No Way Home: The More Fun Stuff Version
◎片  名 Spider-Man: No Way Home
◎年  代 2021
◎产  地 美国
◎类  别 行动 / 科幻 / 奇异 / 冒险
◎语  言 英语 / 他加禄语
◎上映日期 2021-12-15(中国台湾) / 2021-12-17(美国) / 2022-09-02(美国重映)
◎IMDb评星  ★★★★★★★★☆☆
◎IMDb评分  8.2/10 from 861,468 users
◎IMDb链接  https://www.imdb.com/title/tt10872600/
◎豆瓣评星 ★★★✦☆
◎豆瓣评分 6.6/10 from 344,788 users
◎豆瓣链接 https://movie.douban.com/subject/26933210/
◎片  长 148分钟 / 159分钟(加长版)
◎导  演 乔·沃茨 / Jon Watts
◎演  员 汤姆·赫兰德 / Tom Holland | 饰 Peter Parker / Spider-Man
      赞达亚 / Zendaya | 饰 MJ
      本尼迪克特·康伯巴奇 / Benedict Cumberbatch | 饰 Doctor Strange
      雅各布·巴特朗 / Jacob Batalon | 饰 Ned Leeds
      托比·马奎尔 / Tobey Maguire | 饰 Peter Parker / Spider-Man
      安德鲁·加菲尔德 / Andrew Garfield | 饰 Peter Parker / Spider-Man
      玛丽莎·托梅 / Marisa Tomei | 饰 May Parker
      乔恩·费儒 / Jon Favreau | 饰 Happy Hogan
      王汉斌 / Benedict Wong | 饰 Wong
      威廉·达福 / Willem Dafoe | 饰 Green Goblin / Norman Osborn
      阿尔弗雷德·莫里纳 / Alfred Molina | 饰 Otto Octavius / Doctor Octopus
      托马斯·哈登·丘奇 / Thomas Haden Church | 饰 Flint Marko / Sandman
      杰米·福克斯 / Jamie Foxx | 饰 Max Dillon / Electro
      瑞斯·伊凡斯 / Rhys Ifans | 饰 The Lizard / Dr. Curt Connors
      J·K·西蒙斯 / J.K. Simmons | 饰 J·乔纳·詹姆森 J. Jonah Jameson
      查理·考克斯 / Charlie Cox | 饰 Matt Murdock / Daredevil
      安格瑞·赖斯 / Angourie Rice | 饰 Betty Brant
      托尼·雷沃罗利 / Tony Revolori | 饰 Flash Thompson
      宝拉·纽瑟姆 / Paula Newsome | 饰 MIT Assistant Vice Chancellor
      汉尼拔·布勒斯 / Hannibal Buress | 饰 Coach Wilson
      马丁·斯塔尔 / Martin Starr | 饰 Mr. Harrington
      J·B·斯穆夫 / J.B. Smoove | 饰 Mr. Dell
      哈龙·汗 / Haroon Khan | 饰 Apprentice
      本·范德梅 / Ben VanderMey | 饰 Man in Car
      加里·维克斯 / Gary Weeks | 饰 Agent Foster
      马洛里·霍夫 / Mallory Hoff | 饰 Reporter
      里贾纳·陈婷 / Regina Ting Chen | 饰 Reporter
      格伦·基奥 / Glenn Keogh | 饰 British Reporter
      帕丽丝·本杰明 / Paris Benjamin | 饰 British Anchor
      朱万达斯·坎迪斯 / Jwaundace Candece | 饰 Damage Control Agent
      泰勒·圣克莱尔 / Taylor St. Clair | 饰 Protestor
      小豪尔赫·兰登伯格 / Jorge Lendeborg Jr. | 饰 Jason Ionello
      何塞·阿尔弗雷多·费尔南德斯 / José Alfredo Fernandez | 饰 Shield Agent
      约翰尼·塞雷 / Johnny Serret | 饰 High School Student
      罗伯特·廷斯利 / Robert Tinsley | 饰 Protestor / Pedestrian
      哈里·赫兰德 / Harry Holland | 饰 Drug Dealer
      汤姆·哈迪 / Tom Hardy | 饰 Venom / Eddie Brock
      克里斯托·费尔南德斯 / Cristo Fernández | 饰 Bartender
      阿里安·穆阿耶德 / Arian Moayed | 饰 Agent Cleary
      布莱德利·瑞安·奈斯贝尔 / Bradley Ryan Knispel | 饰 Andrew Reeder
◎编  剧 克里斯·麦克纳 / Chris McKenna
      埃里克·萨默斯 / Erik Sommers
      斯坦·李 / Stan Lee
      史蒂夫·迪特寇 / Steve Ditko
◎制  片  人 凯文·费奇 / Kevin Feige
◎音  乐 迈克·吉亚奇诺 / Michael Giacchino
◎服  装 萨尼娅·米尔科维奇·海斯 / Sanja Milkovic Hays
◎视觉殊效 丹尼尔·萨迪克 / Daniel Sudick
◎行动特技 杰克逊·斯皮德尔 / Jackson Spidell
      杰伊·皮尔森 / Jay Pearson
◎简  介 
  《蜘蛛侠:豪杰无归》是豪杰系列三部曲的结束篇,也标志着漫威多元宇宙的正式开启。此次,蜘蛛侠(汤姆·赫兰德 饰)与奇异博士(本尼迪克特·康伯巴奇 饰)继《复联4》后再度联手打响时空混战。蜘蛛侠借助奇异博士操控时空的才能翻开了时空通道,激发了前所未见的危机。
◎获奖情况 
  第94届奥斯卡金像奖 (2022)
  最好视觉结果(提名) 斯科特·埃德斯坦,凯利·波特,丹尼尔·萨迪克
  第46届日本电影学院奖 (2023)
  最好外语片(提名)
  第24届美国打扮设想工会奖 (2022)
  科幻/奇异题材电影最好打扮设想(提名) 萨尼娅·米尔科维奇·海斯
  1. General
  2. Unique ID: 17708039353174314420257504836458014167 (0xD5271BF42E7D970A1436EA1975665D7)
  3. Complete name: Spider-Man.No.Way.Home.2021.Eng.Fre.Ger.Ita.Por.Rus.Spa.Cze.Hun.Pol.Slo.Tha.Tur.Hin.Tam.Tel.2160p.BluRay.Remux.HDR.DV.HEVC.DTS-HD.MA.Atmos-SGF.mkv
  4. Format: Matroska
  5. Format version: Version 4 / Version 2
  6. File size: 81.7 GiB
  7. Duration: 2 h 28 min
  8. Overall bit rate mode: Variable
  9. Overall bit rate: 79.0 Mb/s
  10. Frame rate: 23.976 FPS
  11. Encoded date: 2024-02-05 03:24:08 UTC
  12. Writing application: mkvmerge v82.0 ('I'm The President') 64-bit
  13. Writing library: libebml v1.4.5 + libmatroska v1.7.1
  14. Video
  15. ID: 1
  16. Format: HEVC
  17. Format/Info: High Efficiency Video Coding
  18. Format profile: Main 10@L5.1@High
  19. HDR format: Dolby Vision, Version 1.0, dvhe.07.06, BL+EL+RPU, Blu-ray compatible / SMPTE ST 2086, HDR10 compatible
  20. Codec ID: V_MPEGH/ISO/HEVC
  21. Duration: 2 h 28 min
  22. Bit rate: 54.4 Mb/s
  23. Width: 3 840 pixels
  24. Height: 2 160 pixels
  25. Display aspect ratio: 16:9
  26. Frame rate mode: Constant
  27. Frame rate: 23.976 (24000/1001) FPS
  28. Color space: YUV
  29. Chroma subsampling: 4:2:0 (Type 2)
  30. Bit depth: 10 bits
  31. Bits/(Pixel*Frame): 0.273
  32. Stream size: 56.2 GiB (69%)
  33. Default: Yes
  34. Forced: No
  35. Color range: Limited
  36. Color primaries: BT.2020
  37. Transfer characteristics: PQ
  38. Matrix coefficients: BT.2020 non-constant
  39. Mastering display color primar: BT.2020
  40. Mastering display luminance: min: 0.0001 cd/m2, max: 1000 cd/m2
  41. Maximum Content Light Level: 9978 cd/m2
  42. Maximum Frame-Average Light Le: 867 cd/m2
  43. Audio #1
  44. ID: 2
  45. Format: MLP FBA 16-ch
  46. Format/Info: Meridian Lossless Packing FBA with 16-channel presentation
  47. Commercial name: Dolby TrueHD with Dolby Atmos
  48. Codec ID: A_TRUEHD
  49. Duration: 2 h 28 min
  50. Bit rate mode: Variable
  51. Bit rate: 4 054 kb/s
  52. Maximum bit rate: 7 548 kb/s
  53. Channel(s): 8 channels
  54. Channel layout: L R C LFE Ls Rs Lb Rb
  55. Sampling rate: 48.0 kHz
  56. Frame rate: 1 200.000 FPS (40 SPF)
  57. Compression mode: Lossless
  58. Stream size: 4.20 GiB (5%)
  59. Title: English [Dolby TrueHD Atmos 7.1]
  60. Language: English
  61. Default: Yes
  62. Forced: No
  63. Number of dynamic objects: 11
  64. Bed channel count: 1 channel
  65. Bed channel configuration: LFE
  66. Audio #2
  67. ID: 3
  68. Format: AC-3
  69. Format/Info: Audio Coding 3
  70. Commercial name: Dolby Digital
  71. Codec ID: A_AC3
  72. Duration: 2 h 28 min
  73. Bit rate mode: Constant
  74. Bit rate: 640 kb/s
  75. Channel(s): 6 channels
  76. Channel layout: L R C LFE Ls Rs
  77. Sampling rate: 48.0 kHz
  78. Frame rate: 31.250 FPS (1536 SPF)
  79. Compression mode: Lossy
  80. Stream size: 678 MiB (1%)
  81. Title: English [Dolby Digital 5.1]
  82. Language: English
  83. Service kind: Complete Main
  84. Default: No
  85. Forced: No
  86. Audio #3
  87. ID: 4
  88. Format: AC-3
  89. Format/Info: Audio Coding 3
  90. Commercial name: Dolby Digital
  91. Codec ID: A_AC3
  92. Duration: 2 h 28 min
  93. Bit rate mode: Constant
  94. Bit rate: 640 kb/s
  95. Channel(s): 6 channels
  96. Channel layout: L R C LFE Ls Rs
  97. Sampling rate: 48.0 kHz
  98. Frame rate: 31.250 FPS (1536 SPF)
  99. Compression mode: Lossy
  100. Stream size: 678 MiB (1%)
  101. Title: English (United States) [Audio Description]
  102. Language: English (US)
  103. Service kind: Complete Main
  104. Default: No
  105. Forced: No
  106. Audio #4
  107. ID: 5
  108. Format: AC-3
  109. Format/Info: Audio Coding 3
  110. Commercial name: Dolby Digital
  111. Codec ID: A_AC3
  112. Duration: 2 h 28 min
  113. Bit rate mode: Constant
  114. Bit rate: 640 kb/s
  115. Channel(s): 6 channels
  116. Channel layout: L R C LFE Ls Rs
  117. Sampling rate: 48.0 kHz
  118. Frame rate: 31.250 FPS (1536 SPF)
  119. Compression mode: Lossy
  120. Stream size: 678 MiB (1%)
  121. Title: English (United Kingdom) [Audio Description]
  122. Language: English (GB)
  123. Service kind: Complete Main
  124. Default: No
  125. Forced: No
  126. Audio #5
  127. ID: 6
  128. Format: DTS XLL
  129. Format/Info: Digital Theater Systems
  130. Commercial name: DTS-HD Master Audio
  131. Codec ID: A_DTS
  132. Duration: 2 h 28 min
  133. Bit rate mode: Variable / Constant
  134. Bit rate: 2 201 kb/s / 1 509 kb/s
  135. Channel(s): 6 channels
  136. Channel layout: C L R Ls Rs LFE
  137. Sampling rate: 48.0 kHz
  138. Frame rate: 93.750 FPS (512 SPF)
  139. Bit depth: 16 bits
  140. Compression mode: Lossless / Lossy
  141. Stream size: 2.28 GiB (3%)
  142. Title: French (France) [DTS-HD MA 5.1]
  143. Language: French (FR)
  144. Default: No
  145. Forced: No
  146. Audio #6
  147. ID: 7
  148. Format: AC-3
  149. Format/Info: Audio Coding 3
  150. Commercial name: Dolby Digital
  151. Codec ID: A_AC3
  152. Duration: 2 h 28 min
  153. Bit rate mode: Constant
  154. Bit rate: 640 kb/s
  155. Channel(s): 6 channels
  156. Channel layout: L R C LFE Ls Rs
  157. Sampling rate: 48.0 kHz
  158. Frame rate: 31.250 FPS (1536 SPF)
  159. Compression mode: Lossy
  160. Stream size: 678 MiB (1%)
  161. Title: French (Canada) [Dolby Digital 5.1]
  162. Language: French (CA)
  163. Service kind: Complete Main
  164. Default: No
  165. Forced: No
  166. Audio #7
  167. ID: 8
  168. Format: DTS XLL
  169. Format/Info: Digital Theater Systems
  170. Commercial name: DTS-HD Master Audio
  171. Codec ID: A_DTS
  172. Duration: 2 h 28 min
  173. Bit rate mode: Variable / Constant
  174. Bit rate: 2 210 kb/s / 1 509 kb/s
  175. Channel(s): 6 channels
  176. Channel layout: C L R Ls Rs LFE
  177. Sampling rate: 48.0 kHz
  178. Frame rate: 93.750 FPS (512 SPF)
  179. Bit depth: 16 bits
  180. Compression mode: Lossless / Lossy
  181. Stream size: 2.29 GiB (3%)
  182. Title: German [DTS-HD MA 5.1]
  183. Language: German
  184. Default: No
  185. Forced: No
  186. Audio #8
  187. ID: 9
  188. Format: DTS XLL
  189. Format/Info: Digital Theater Systems
  190. Commercial name: DTS-HD Master Audio
  191. Codec ID: A_DTS
  192. Duration: 2 h 28 min
  193. Bit rate mode: Variable / Constant
  194. Bit rate: 2 200 kb/s / 1 509 kb/s
  195. Channel(s): 6 channels
  196. Channel layout: C L R Ls Rs LFE
  197. Sampling rate: 48.0 kHz
  198. Frame rate: 93.750 FPS (512 SPF)
  199. Bit depth: 16 bits
  200. Compression mode: Lossless / Lossy
  201. Stream size: 2.28 GiB (3%)
  202. Title: Italian [DTS-HD MA 5.1]
  203. Language: Italian
  204. Default: No
  205. Forced: No
  206. Audio #9
  207. ID: 10
  208. Format: DTS XLL
  209. Format/Info: Digital Theater Systems
  210. Commercial name: DTS-HD Master Audio
  211. Codec ID: A_DTS
  212. Duration: 2 h 28 min
  213. Bit rate mode: Variable / Constant
  214. Bit rate: 2 205 kb/s / 1 509 kb/s
  215. Channel(s): 6 channels
  216. Channel layout: C L R Ls Rs LFE
  217. Sampling rate: 48.0 kHz
  218. Frame rate: 93.750 FPS (512 SPF)
  219. Bit depth: 16 bits
  220. Compression mode: Lossless / Lossy
  221. Stream size: 2.28 GiB (3%)
  222. Title: Portuguese [DTS-HD MA 5.1]
  223. Language: Portuguese
  224. Default: No
  225. Forced: No
  226. Audio #10
  227. ID: 11
  228. Format: AC-3
  229. Format/Info: Audio Coding 3
  230. Commercial name: Dolby Digital
  231. Codec ID: A_AC3
  232. Duration: 2 h 28 min
  233. Bit rate mode: Constant
  234. Bit rate: 640 kb/s
  235. Channel(s): 6 channels
  236. Channel layout: L R C LFE Ls Rs
  237. Sampling rate: 48.0 kHz
  238. Frame rate: 31.250 FPS (1536 SPF)
  239. Compression mode: Lossy
  240. Stream size: 678 MiB (1%)
  241. Title: Russian [Dolby Digital 5.1]
  242. Language: Russian
  243. Service kind: Complete Main
  244. Default: No
  245. Forced: No
  246. Audio #11
  247. ID: 12
  248. Format: DTS XLL
  249. Format/Info: Digital Theater Systems
  250. Commercial name: DTS-HD Master Audio
  251. Codec ID: A_DTS
  252. Duration: 2 h 28 min
  253. Bit rate mode: Variable / Constant
  254. Bit rate: 2 213 kb/s / 1 509 kb/s
  255. Channel(s): 6 channels
  256. Channel layout: C L R Ls Rs LFE
  257. Sampling rate: 48.0 kHz
  258. Frame rate: 93.750 FPS (512 SPF)
  259. Bit depth: 16 bits
  260. Compression mode: Lossless / Lossy
  261. Stream size: 2.29 GiB (3%)
  262. Title: Spanish (Spain) [DTS-HD MA 5.1]
  263. Language: Spanish (ES)
  264. Default: No
  265. Forced: No
  266. Audio #12
  267. ID: 13
  268. Format: AC-3
  269. Format/Info: Audio Coding 3
  270. Commercial name: Dolby Digital
  271. Codec ID: A_AC3
  272. Duration: 2 h 28 min
  273. Bit rate mode: Constant
  274. Bit rate: 640 kb/s
  275. Channel(s): 6 channels
  276. Channel layout: L R C LFE Ls Rs
  277. Sampling rate: 48.0 kHz
  278. Frame rate: 31.250 FPS (1536 SPF)
  279. Compression mode: Lossy
  280. Stream size: 678 MiB (1%)
  281. Title: Spanish (Latin America) [Dolby Digital 5.1]
  282. Language: Spanish (Latin America)
  283. Service kind: Complete Main
  284. Default: No
  285. Forced: No
  286. Audio #13
  287. ID: 14
  288. Format: AC-3
  289. Format/Info: Audio Coding 3
  290. Commercial name: Dolby Digital
  291. Codec ID: A_AC3
  292. Duration: 2 h 28 min
  293. Bit rate mode: Constant
  294. Bit rate: 640 kb/s
  295. Channel(s): 6 channels
  296. Channel layout: L R C LFE Ls Rs
  297. Sampling rate: 48.0 kHz
  298. Frame rate: 31.250 FPS (1536 SPF)
  299. Compression mode: Lossy
  300. Stream size: 678 MiB (1%)
  301. Title: Czech [Dolby Digital 5.1]
  302. Language: Czech
  303. Service kind: Complete Main
  304. Default: No
  305. Forced: No
  306. Audio #14
  307. ID: 15
  308. Format: AC-3
  309. Format/Info: Audio Coding 3
  310. Commercial name: Dolby Digital
  311. Codec ID: A_AC3
  312. Duration: 2 h 28 min
  313. Bit rate mode: Constant
  314. Bit rate: 640 kb/s
  315. Channel(s): 6 channels
  316. Channel layout: L R C LFE Ls Rs
  317. Sampling rate: 48.0 kHz
  318. Frame rate: 31.250 FPS (1536 SPF)
  319. Compression mode: Lossy
  320. Stream size: 678 MiB (1%)
  321. Title: Hungarian [Dolby Digital 5.1]
  322. Language: Hungarian
  323. Service kind: Complete Main
  324. Default: No
  325. Forced: No
  326. Audio #15
  327. ID: 16
  328. Format: AC-3
  329. Format/Info: Audio Coding 3
  330. Commercial name: Dolby Digital
  331. Codec ID: A_AC3
  332. Duration: 2 h 28 min
  333. Bit rate mode: Constant
  334. Bit rate: 640 kb/s
  335. Channel(s): 6 channels
  336. Channel layout: L R C LFE Ls Rs
  337. Sampling rate: 48.0 kHz
  338. Frame rate: 31.250 FPS (1536 SPF)
  339. Compression mode: Lossy
  340. Stream size: 678 MiB (1%)
  341. Title: Polish [Dolby Digital 5.1]
  342. Language: Polish
  343. Service kind: Complete Main
  344. Default: No
  345. Forced: No
  346. Audio #16
  347. ID: 17
  348. Format: AC-3
  349. Format/Info: Audio Coding 3
  350. Commercial name: Dolby Digital
  351. Codec ID: A_AC3
  352. Duration: 2 h 28 min
  353. Bit rate mode: Constant
  354. Bit rate: 448 kb/s
  355. Channel(s): 6 channels
  356. Channel layout: L R C LFE Ls Rs
  357. Sampling rate: 48.0 kHz
  358. Frame rate: 31.250 FPS (1536 SPF)
  359. Compression mode: Lossy
  360. Stream size: 475 MiB (0%)
  361. Title: Slovak [Dolby Digital 5.1]
  362. Language: Slovak
  363. Service kind: Complete Main
  364. Default: No
  365. Forced: No
  366. Audio #17
  367. ID: 18
  368. Format: AC-3
  369. Format/Info: Audio Coding 3
  370. Commercial name: Dolby Digital
  371. Codec ID: A_AC3
  372. Duration: 2 h 28 min
  373. Bit rate mode: Constant
  374. Bit rate: 640 kb/s
  375. Channel(s): 6 channels
  376. Channel layout: L R C LFE Ls Rs
  377. Sampling rate: 48.0 kHz
  378. Frame rate: 31.250 FPS (1536 SPF)
  379. Compression mode: Lossy
  380. Stream size: 678 MiB (1%)
  381. Title: Thai [Dolby Digital 5.1]
  382. Language: Thai
  383. Service kind: Complete Main
  384. Default: No
  385. Forced: No
  386. Audio #18
  387. ID: 19
  388. Format: AC-3
  389. Format/Info: Audio Coding 3
  390. Commercial name: Dolby Digital
  391. Codec ID: A_AC3
  392. Duration: 2 h 28 min
  393. Bit rate mode: Constant
  394. Bit rate: 640 kb/s
  395. Channel(s): 6 channels
  396. Channel layout: L R C LFE Ls Rs
  397. Sampling rate: 48.0 kHz
  398. Frame rate: 31.250 FPS (1536 SPF)
  399. Compression mode: Lossy
  400. Stream size: 678 MiB (1%)
  401. Title: Turkish [Dolby Digital 5.1]
  402. Language: Turkish
  403. Service kind: Complete Main
  404. Default: No
  405. Forced: No
  406. Audio #19
  407. ID: 20
  408. Format: AC-3
  409. Format/Info: Audio Coding 3
  410. Commercial name: Dolby Digital
  411. Codec ID: A_AC3
  412. Duration: 2 h 28 min
  413. Bit rate mode: Constant
  414. Bit rate: 448 kb/s
  415. Channel(s): 6 channels
  416. Channel layout: L R C LFE Ls Rs
  417. Sampling rate: 48.0 kHz
  418. Frame rate: 31.250 FPS (1536 SPF)
  419. Compression mode: Lossy
  420. Stream size: 475 MiB (0%)
  421. Title: Hindi [Dolby Digital 5.1]
  422. Language: Hindi
  423. Service kind: Complete Main
  424. Default: No
  425. Forced: No
  426. Audio #20
  427. ID: 21
  428. Format: AC-3
  429. Format/Info: Audio Coding 3
  430. Commercial name: Dolby Digital
  431. Codec ID: A_AC3
  432. Duration: 2 h 28 min
  433. Bit rate mode: Constant
  434. Bit rate: 448 kb/s
  435. Channel(s): 6 channels
  436. Channel layout: L R C LFE Ls Rs
  437. Sampling rate: 48.0 kHz
  438. Frame rate: 31.250 FPS (1536 SPF)
  439. Compression mode: Lossy
  440. Stream size: 475 MiB (0%)
  441. Title: Tamil [Dolby Digital 5.1]
  442. Language: Tamil
  443. Service kind: Complete Main
  444. Default: No
  445. Forced: No
  446. Audio #21
  447. ID: 22
  448. Format: AC-3
  449. Format/Info: Audio Coding 3
  450. Commercial name: Dolby Digital
  451. Codec ID: A_AC3
  452. Duration: 2 h 28 min
  453. Bit rate mode: Constant
  454. Bit rate: 448 kb/s
  455. Channel(s): 6 channels
  456. Channel layout: L R C LFE Ls Rs
  457. Sampling rate: 48.0 kHz
  458. Frame rate: 31.250 FPS (1536 SPF)
  459. Compression mode: Lossy
  460. Stream size: 475 MiB (0%)
  461. Title: Telugu [Dolby Digital 5.1]
  462. Language: Telugu
  463. Service kind: Complete Main
  464. Default: No
  465. Forced: No
  466. Text #1
  467. ID: 23
  468. Format: PGS
  469. Muxing mode: zlib
  470. Codec ID: S_HDMV/PGS
  471. Codec ID/Info: Picture based subtitle format used on BDs/HD-DVDs
  472. Duration: 2 h 27 min
  473. Bit rate: 35.3 kb/s
  474. Frame rate: 0.432 FPS
  475. Count of elements: 3833
  476. Stream size: 37.4 MiB (0%)
  477. Title: English [Full]
  478. Language: English
  479. Default: No
  480. Forced: No
  481. Text #2
  482. ID: 24
  483. Format: PGS
  484. Muxing mode: zlib
  485. Codec ID: S_HDMV/PGS
  486. Codec ID/Info: Picture based subtitle format used on BDs/HD-DVDs
  487. Duration: 2 h 27 min
  488. Bit rate: 41.5 kb/s
  489. Frame rate: 0.496 FPS
  490. Count of elements: 4404
  491. Stream size: 43.9 MiB (0%)
  492. Title: English [SDH]
  493. Language: English
  494. Default: No
  495. Forced: No
  496. Text #3
  497. ID: 25
  498. Format: PGS
  499. Muxing mode: zlib
  500. Codec ID: S_HDMV/PGS
  501. Codec ID/Info: Picture based subtitle format used on BDs/HD-DVDs
  502. Duration: 2 h 27 min
  503. Bit rate: 27.3 kb/s
  504. Frame rate: 0.418 FPS
  505. Count of elements: 3708
  506. Stream size: 28.9 MiB (0%)
  507. Title: French (France) [Full]
  508. Language: French (FR)
  509. Default: No
  510. Forced: No
  511. Text #4
  512. ID: 26
  513. Format: PGS
  514. Muxing mode: zlib
  515. Codec ID: S_HDMV/PGS
  516. Codec ID/Info: Picture based subtitle format used on BDs/HD-DVDs
  517. Duration: 2 h 16 min
  518. Bit rate: 147 b/s
  519. Frame rate: 0.001 FPS
  520. Count of elements: 12
  521. Stream size: 148 KiB (0%)
  522. Title: French (France) [Forced]
  523. Language: French (FR)
  524. Default: No
  525. Forced: No
  526. Text #5
  527. ID: 27
  528. Format: PGS
  529. Muxing mode: zlib
  530. Codec ID: S_HDMV/PGS
  531. Codec ID/Info: Picture based subtitle format used on BDs/HD-DVDs
  532. Duration: 2 h 27 min
  533. Bit rate: 27.3 kb/s
  534. Frame rate: 0.418 FPS
  535. Count of elements: 3708
  536. Stream size: 28.9 MiB (0%)
  537. Title: French (Canada) [Full]
  538. Language: French (CA)
  539. Default: No
  540. Forced: No
  541. Text #6
  542. ID: 28
  543. Format: PGS
  544. Muxing mode: zlib
  545. Codec ID: S_HDMV/PGS
  546. Codec ID/Info: Picture based subtitle format used on BDs/HD-DVDs
  547. Duration: 2 h 17 min
  548. Bit rate: 177 b/s
  549. Frame rate: 0.002 FPS
  550. Count of elements: 14
  551. Stream size: 180 KiB (0%)
  552. Title: French (Canada) [Forced]
  553. Language: French (CA)
  554. Default: No
  555. Forced: No
  556. Text #7
  557. ID: 29
  558. Format: PGS
  559. Muxing mode: zlib
  560. Codec ID: S_HDMV/PGS
  561. Codec ID/Info: Picture based subtitle format used on BDs/HD-DVDs
  562. Duration: 2 h 28 min
  563. Bit rate: 34.1 kb/s
  564. Frame rate: 0.428 FPS
  565. Count of elements: 3800
  566. Stream size: 36.1 MiB (0%)
  567. Title: German [Full]
  568. Language: German
  569. Default: No
  570. Forced: No
  571. Text #8
  572. ID: 30
  573. Format: PGS
  574. Muxing mode: zlib
  575. Codec ID: S_HDMV/PGS
  576. Codec ID/Info: Picture based subtitle format used on BDs/HD-DVDs
  577. Duration: 14 min 27 s
  578. Bit rate: 1 298 b/s
  579. Frame rate: 0.009 FPS
  580. Count of elements: 8
  581. Stream size: 138 KiB (0%)
  582. Title: German [Forced]
  583. Language: German
  584. Default: No
  585. Forced: No
  586. Text #9
  587. ID: 31
  588. Format: PGS
  589. Muxing mode: zlib
  590. Codec ID: S_HDMV/PGS
  591. Codec ID/Info: Picture based subtitle format used on BDs/HD-DVDs
  592. Duration: 2 h 28 min
  593. Bit rate: 30.3 kb/s
  594. Frame rate: 0.403 FPS
  595. Count of elements: 3575
  596. Stream size: 32.1 MiB (0%)
  597. Title: Italian [Full]
  598. Language: Italian
  599. Default: No
  600. Forced: No
  601. Text #10
  602. ID: 32
  603. Format: PGS
  604. Muxing mode: zlib
  605. Codec ID: S_HDMV/PGS
  606. Codec ID/Info: Picture based subtitle format used on BDs/HD-DVDs
  607. Duration: 2 h 17 min
  608. Bit rate: 86 b/s
  609. Frame rate: 0.001 FPS
  610. Count of elements: 8
  611. Stream size: 87.1 KiB (0%)
  612. Title: Italian [Forced]
  613. Language: Italian
  614. Default: No
  615. Forced: No
  616. Text #11
  617. ID: 33
  618. Format: PGS
  619. Muxing mode: zlib
  620. Codec ID: S_HDMV/PGS
  621. Codec ID/Info: Picture based subtitle format used on BDs/HD-DVDs
  622. Duration: 2 h 28 min
  623. Bit rate: 32.8 kb/s
  624. Frame rate: 0.429 FPS
  625. Count of elements: 3809
  626. Stream size: 34.7 MiB (0%)
  627. Title: Portuguese [Full]
  628. Language: Portuguese
  629. Default: No
  630. Forced: No
  631. Text #12
  632. ID: 34
  633. Format: PGS
  634. Muxing mode: zlib
  635. Codec ID: S_HDMV/PGS
  636. Codec ID/Info: Picture based subtitle format used on BDs/HD-DVDs
  637. Duration: 2 h 25 min
  638. Bit rate: 285 b/s
  639. Frame rate: 0.003 FPS
  640. Count of elements: 28
  641. Stream size: 305 KiB (0%)
  642. Title: Portuguese [Forced]
  643. Language: Portuguese
  644. Default: No
  645. Forced: No
  646. Text #13
  647. ID: 35
  648. Format: PGS
  649. Muxing mode: zlib
  650. Codec ID: S_HDMV/PGS
  651. Codec ID/Info: Picture based subtitle format used on BDs/HD-DVDs
  652. Duration: 2 h 28 min
  653. Bit rate: 31.3 kb/s
  654. Frame rate: 0.437 FPS
  655. Count of elements: 3883
  656. Stream size: 33.1 MiB (0%)
  657. Title: Russian [Full]
  658. Language: Russian
  659. Default: No
  660. Forced: No
  661. Text #14
  662. ID: 36
  663. Format: PGS
  664. Muxing mode: zlib
  665. Codec ID: S_HDMV/PGS
  666. Codec ID/Info: Picture based subtitle format used on BDs/HD-DVDs
  667. Duration: 2 h 16 min
  668. Bit rate: 214 b/s
  669. Frame rate: 0.002 FPS
  670. Count of elements: 18
  671. Stream size: 215 KiB (0%)
  672. Title: Russian [Forced]
  673. Language: Russian
  674. Default: No
  675. Forced: No
  676. Text #15
  677. ID: 37
  678. Format: PGS
  679. Muxing mode: zlib
  680. Codec ID: S_HDMV/PGS
  681. Codec ID/Info: Picture based subtitle format used on BDs/HD-DVDs
  682. Duration: 2 h 28 min
  683. Bit rate: 33.8 kb/s
  684. Frame rate: 0.442 FPS
  685. Count of elements: 3923
  686. Stream size: 35.8 MiB (0%)
  687. Title: Spanish (Spain) [Full]
  688. Language: Spanish (ES)
  689. Default: No
  690. Forced: No
  691. Text #16
  692. ID: 38
  693. Format: PGS
  694. Muxing mode: zlib
  695. Codec ID: S_HDMV/PGS
  696. Codec ID/Info: Picture based subtitle format used on BDs/HD-DVDs
  697. Duration: 2 h 19 min
  698. Bit rate: 233 b/s
  699. Frame rate: 0.002 FPS
  700. Count of elements: 18
  701. Stream size: 239 KiB (0%)
  702. Title: Spanish (Spain) [Forced]
  703. Language: Spanish (ES)
  704. Default: No
  705. Forced: No
  706. Text #17
  707. ID: 39
  708. Format: PGS
  709. Muxing mode: zlib
  710. Codec ID: S_HDMV/PGS
  711. Codec ID/Info: Picture based subtitle format used on BDs/HD-DVDs
  712. Duration: 2 h 28 min
  713. Bit rate: 30.4 kb/s
  714. Frame rate: 0.430 FPS
  715. Count of elements: 3821
  716. Stream size: 32.2 MiB (0%)
  717. Title: Spanish (Latin America) [Full]
  718. Language: Spanish (Latin America)
  719. Default: No
  720. Forced: No
  721. Text #18
  722. ID: 40
  723. Format: PGS
  724. Muxing mode: zlib
  725. Codec ID: S_HDMV/PGS
  726. Codec ID/Info: Picture based subtitle format used on BDs/HD-DVDs
  727. Duration: 2 h 17 min
  728. Bit rate: 204 b/s
  729. Frame rate: 0.002 FPS
  730. Count of elements: 18
  731. Stream size: 207 KiB (0%)
  732. Title: Spanish (Latin America) [Forced]
  733. Language: Spanish (Latin America)
  734. Default: No
  735. Forced: No
  736. Text #19
  737. ID: 41
  738. Format: PGS
  739. Muxing mode: zlib
  740. Codec ID: S_HDMV/PGS
  741. Codec ID/Info: Picture based subtitle format used on BDs/HD-DVDs
  742. Duration: 2 h 28 min
  743. Bit rate: 32.6 kb/s
  744. Frame rate: 0.443 FPS
  745. Count of elements: 3937
  746. Stream size: 34.6 MiB (0%)
  747. Title: Czech [Full]
  748. Language: Czech
  749. Default: No
  750. Forced: No
  751. Text #20
  752. ID: 42
  753. Format: PGS
  754. Muxing mode: zlib
  755. Codec ID: S_HDMV/PGS
  756. Codec ID/Info: Picture based subtitle format used on BDs/HD-DVDs
  757. Duration: 2 h 28 min
  758. Bit rate: 32.0 kb/s
  759. Frame rate: 0.436 FPS
  760. Count of elements: 3877
  761. Stream size: 33.8 MiB (0%)
  762. Title: Hungarian [Full]
  763. Language: Hungarian
  764. Default: No
  765. Forced: No
  766. Text #21
  767. ID: 43
  768. Format: PGS
  769. Muxing mode: zlib
  770. Codec ID: S_HDMV/PGS
  771. Codec ID/Info: Picture based subtitle format used on BDs/HD-DVDs
  772. Duration: 2 h 27 min
  773. Bit rate: 31.9 kb/s
  774. Frame rate: 0.420 FPS
  775. Count of elements: 3721
  776. Stream size: 33.7 MiB (0%)
  777. Title: Polish [Full]
  778. Language: Polish
  779. Default: No
  780. Forced: No
  781. Text #22
  782. ID: 44
  783. Format: PGS
  784. Muxing mode: zlib
  785. Codec ID: S_HDMV/PGS
  786. Codec ID/Info: Picture based subtitle format used on BDs/HD-DVDs
  787. Duration: 2 h 28 min
  788. Bit rate: 30.0 kb/s
  789. Frame rate: 0.441 FPS
  790. Count of elements: 3919
  791. Stream size: 31.8 MiB (0%)
  792. Title: Slovak [Full]
  793. Language: Slovak
  794. Default: No
  795. Forced: No
  796. Text #23
  797. ID: 45
  798. Format: PGS
  799. Muxing mode: zlib
  800. Codec ID: S_HDMV/PGS
  801. Codec ID/Info: Picture based subtitle format used on BDs/HD-DVDs
  802. Duration: 2 h 28 min
  803. Bit rate: 32.5 kb/s
  804. Frame rate: 0.439 FPS
  805. Count of elements: 3896
  806. Stream size: 34.4 MiB (0%)
  807. Title: Thai [Full]
  808. Language: Thai
  809. Default: No
  810. Forced: No
  811. Text #24
  812. ID: 46
  813. Format: PGS
  814. Muxing mode: zlib
  815. Codec ID: S_HDMV/PGS
  816. Codec ID/Info: Picture based subtitle format used on BDs/HD-DVDs
  817. Duration: 2 h 28 min
  818. Bit rate: 34.3 kb/s
  819. Frame rate: 0.439 FPS
  820. Count of elements: 3903
  821. Stream size: 36.3 MiB (0%)
  822. Title: Turkish [Full]
  823. Language: Turkish
  824. Default: No
  825. Forced: No
  826. Text #25
  827. ID: 47
  828. Format: PGS
  829. Muxing mode: zlib
  830. Codec ID: S_HDMV/PGS
  831. Codec ID/Info: Picture based subtitle format used on BDs/HD-DVDs
  832. Duration: 2 h 28 min
  833. Bit rate: 21.8 kb/s
  834. Frame rate: 0.440 FPS
  835. Count of elements: 3905
  836. Stream size: 23.1 MiB (0%)
  837. Title: Arabic [Full]
  838. Language: Arabic
  839. Default: No
  840. Forced: No
  841. Text #26
  842. ID: 48
  843. Format: PGS
  844. Muxing mode: zlib
  845. Codec ID: S_HDMV/PGS
  846. Codec ID/Info: Picture based subtitle format used on BDs/HD-DVDs
  847. Duration: 2 h 28 min
  848. Bit rate: 31.3 kb/s
  849. Frame rate: 0.441 FPS
  850. Count of elements: 3919
  851. Stream size: 33.2 MiB (0%)
  852. Title: Bulgarian [Full]
  853. Language: Bulgarian
  854. Default: No
  855. Forced: No
  856. Text #27
  857. ID: 49
  858. Format: PGS
  859. Muxing mode: zlib
  860. Codec ID: S_HDMV/PGS
  861. Codec ID/Info: Picture based subtitle format used on BDs/HD-DVDs
  862. Duration: 2 h 28 min
  863. Bit rate: 29.5 kb/s
  864. Frame rate: 0.444 FPS
  865. Count of elements: 3945
  866. Stream size: 31.2 MiB (0%)
  867. Title: Chinese (Mandarin Simplified) [Full]
  868. Language: Mandarin (Hans)
  869. Default: No
  870. Forced: No
  871. Text #28
  872. ID: 50
  873. Format: PGS
  874. Muxing mode: zlib
  875. Codec ID: S_HDMV/PGS
  876. Codec ID/Info: Picture based subtitle format used on BDs/HD-DVDs
  877. Duration: 2 h 28 min
  878. Bit rate: 26.1 kb/s
  879. Frame rate: 0.445 FPS
  880. Count of elements: 3955
  881. Stream size: 27.6 MiB (0%)
  882. Title: Chinese (Mandarin Traditional) [Full]
  883. Language: Mandarin (Hant)
  884. Default: No
  885. Forced: No
  886. Text #29
  887. ID: 51
  888. Format: PGS
  889. Muxing mode: zlib
  890. Codec ID: S_HDMV/PGS
  891. Codec ID/Info: Picture based subtitle format used on BDs/HD-DVDs
  892. Duration: 2 h 28 min
  893. Bit rate: 28.5 kb/s
  894. Frame rate: 0.430 FPS
  895. Count of elements: 3821
  896. Stream size: 30.2 MiB (0%)
  897. Title: Chinese (Cantonese Traditional) [Full]
  898. Language: Cantonese (Hant)
  899. Default: No
  900. Forced: No
  901. Text #30
  902. ID: 52
  903. Format: PGS
  904. Muxing mode: zlib
  905. Codec ID: S_HDMV/PGS
  906. Codec ID/Info: Picture based subtitle format used on BDs/HD-DVDs
  907. Duration: 2 h 28 min
  908. Bit rate: 31.2 kb/s
  909. Frame rate: 0.441 FPS
  910. Count of elements: 3919
  911. Stream size: 33.0 MiB (0%)
  912. Title: Croatian [Full]
  913. Language: Croatian
  914. Default: No
  915. Forced: No
  916. Text #31
  917. ID: 53
  918. Format: PGS
  919. Muxing mode: zlib
  920. Codec ID: S_HDMV/PGS
  921. Codec ID/Info: Picture based subtitle format used on BDs/HD-DVDs
  922. Duration: 2 h 28 min
  923. Bit rate: 28.6 kb/s
  924. Frame rate: 0.305 FPS
  925. Count of elements: 2712
  926. Stream size: 30.3 MiB (0%)
  927. Title: Danish [Full]
  928. Language: Danish
  929. Default: No
  930. Forced: No
  931. Text #32
  932. ID: 54
  933. Format: PGS
  934. Muxing mode: zlib
  935. Codec ID: S_HDMV/PGS
  936. Codec ID/Info: Picture based subtitle format used on BDs/HD-DVDs
  937. Duration: 2 h 28 min
  938. Bit rate: 29.8 kb/s
  939. Frame rate: 0.318 FPS
  940. Count of elements: 2824
  941. Stream size: 31.5 MiB (0%)
  942. Title: Dutch [Full]
  943. Language: Dutch
  944. Default: No
  945. Forced: No
  946. Text #33
  947. ID: 55
  948. Format: PGS
  949. Muxing mode: zlib
  950. Codec ID: S_HDMV/PGS
  951. Codec ID/Info: Picture based subtitle format used on BDs/HD-DVDs
  952. Duration: 2 h 28 min
  953. Bit rate: 31.5 kb/s
  954. Frame rate: 0.473 FPS
  955. Count of elements: 4201
  956. Stream size: 33.3 MiB (0%)
  957. Title: Estonian [Full]
  958. Language: Estonian
  959. Default: No
  960. Forced: No
  961. Text #34
  962. ID: 56
  963. Format: PGS
  964. Muxing mode: zlib
  965. Codec ID: S_HDMV/PGS
  966. Codec ID/Info: Picture based subtitle format used on BDs/HD-DVDs
  967. Duration: 2 h 28 min
  968. Bit rate: 30.3 kb/s
  969. Frame rate: 0.442 FPS
  970. Count of elements: 3923
  971. Stream size: 32.0 MiB (0%)
  972. Title: Finnish [Full]
  973. Language: Finnish
  974. Default: No
  975. Forced: No
  976. Text #35
  977. ID: 57
  978. Format: PGS
  979. Muxing mode: zlib
  980. Codec ID: S_HDMV/PGS
  981. Codec ID/Info: Picture based subtitle format used on BDs/HD-DVDs
  982. Duration: 2 h 28 min
  983. Bit rate: 33.7 kb/s
  984. Frame rate: 0.436 FPS
  985. Count of elements: 3873
  986. Stream size: 35.7 MiB (0%)
  987. Title: Greek [Full]
  988. Language: Greek
  989. Default: No
  990. Forced: No
  991. Text #36
  992. ID: 58
  993. Format: PGS
  994. Muxing mode: zlib
  995. Codec ID: S_HDMV/PGS
  996. Codec ID/Info: Picture based subtitle format used on BDs/HD-DVDs
  997. Duration: 2 h 28 min
  998. Bit rate: 25.3 kb/s
  999. Frame rate: 0.458 FPS
  1000. Count of elements: 4063
  1001. Stream size: 26.8 MiB (0%)
  1002. Title: Hebrew [Full]
  1003. Language: Hebrew
  1004. Default: No
  1005. Forced: No
  1006. Text #37
  1007. ID: 59
  1008. Format: PGS
  1009. Muxing mode: zlib
  1010. Codec ID: S_HDMV/PGS
  1011. Codec ID/Info: Picture based subtitle format used on BDs/HD-DVDs
  1012. Duration: 2 h 28 min
  1013. Bit rate: 32.2 kb/s
  1014. Frame rate: 0.422 FPS
  1015. Count of elements: 3745
  1016. Stream size: 34.1 MiB (0%)
  1017. Title: Icelandic [Full]
  1018. Language: Icelandic
  1019. Default: No
  1020. Forced: No
  1021. Text #38
  1022. ID: 60
  1023. Format: PGS
  1024. Muxing mode: zlib
  1025. Codec ID: S_HDMV/PGS
  1026. Codec ID/Info: Picture based subtitle format used on BDs/HD-DVDs
  1027. Duration: 2 h 28 min
  1028. Bit rate: 26.4 kb/s
  1029. Frame rate: 0.451 FPS
  1030. Count of elements: 4009
  1031. Stream size: 27.9 MiB (0%)
  1032. Title: Korean [Full]
  1033. Language: Korean
  1034. Default: No
  1035. Forced: No
  1036. Text #39
  1037. ID: 61
  1038. Format: PGS
  1039. Muxing mode: zlib
  1040. Codec ID: S_HDMV/PGS
  1041. Codec ID/Info: Picture based subtitle format used on BDs/HD-DVDs
  1042. Duration: 2 h 28 min
  1043. Bit rate: 31.9 kb/s
  1044. Frame rate: 0.462 FPS
  1045. Count of elements: 4107
  1046. Stream size: 33.8 MiB (0%)
  1047. Title: Latvian [Full]
  1048. Language: Latvian
  1049. Default: No
  1050. Forced: No
  1051. Text #40
  1052. ID: 62
  1053. Format: PGS
  1054. Muxing mode: zlib
  1055. Codec ID: S_HDMV/PGS
  1056. Codec ID/Info: Picture based subtitle format used on BDs/HD-DVDs
  1057. Duration: 2 h 28 min
  1058. Bit rate: 30.2 kb/s
  1059. Frame rate: 0.436 FPS
  1060. Count of elements: 3871
  1061. Stream size: 32.0 MiB (0%)
  1062. Title: Lithuanian [Full]
  1063. Language: Lithuanian
  1064. Default: No
  1065. Forced: No
  1066. Text #41
  1067. ID: 63
  1068. Format: PGS
  1069. Muxing mode: zlib
  1070. Codec ID: S_HDMV/PGS
  1071. Codec ID/Info: Picture based subtitle format used on BDs/HD-DVDs
  1072. Duration: 2 h 28 min
  1073. Bit rate: 27.9 kb/s
  1074. Frame rate: 0.396 FPS
  1075. Count of elements: 3519
  1076. Stream size: 29.5 MiB (0%)
  1077. Title: Norwegian [Full]
  1078. Language: Norwegian
  1079. Default: No
  1080. Forced: No
  1081. Text #42
  1082. ID: 64
  1083. Format: PGS
  1084. Muxing mode: zlib
  1085. Codec ID: S_HDMV/PGS
  1086. Codec ID/Info: Picture based subtitle format used on BDs/HD-DVDs
  1087. Duration: 2 h 28 min
  1088. Bit rate: 33.3 kb/s
  1089. Frame rate: 0.426 FPS
  1090. Count of elements: 3783
  1091. Stream size: 35.2 MiB (0%)
  1092. Title: Romanian [Full]
  1093. Language: Romanian
  1094. Default: No
  1095. Forced: No
  1096. Text #43
  1097. ID: 65
  1098. Format: PGS
  1099. Muxing mode: zlib
  1100. Codec ID: S_HDMV/PGS
  1101. Codec ID/Info: Picture based subtitle format used on BDs/HD-DVDs
  1102. Duration: 2 h 28 min
  1103. Bit rate: 33.0 kb/s
  1104. Frame rate: 0.440 FPS
  1105. Count of elements: 3909
  1106. Stream size: 34.9 MiB (0%)
  1107. Title: Serbian [Full]
  1108. Language: Serbian
  1109. Default: No
  1110. Forced: No
  1111. Text #44
  1112. ID: 66
  1113. Format: PGS
  1114. Muxing mode: zlib
  1115. Codec ID: S_HDMV/PGS
  1116. Codec ID/Info: Picture based subtitle format used on BDs/HD-DVDs
  1117. Duration: 2 h 27 min
  1118. Bit rate: 27.7 kb/s
  1119. Frame rate: 0.379 FPS
  1120. Count of elements: 3361
  1121. Stream size: 29.3 MiB (0%)
  1122. Title: Slovenian [Full]
  1123. Language: Slovenian
  1124. Default: No
  1125. Forced: No
  1126. Text #45
  1127. ID: 67
  1128. Format: PGS
  1129. Muxing mode: zlib
  1130. Codec ID: S_HDMV/PGS
  1131. Codec ID/Info: Picture based subtitle format used on BDs/HD-DVDs
  1132. Duration: 2 h 28 min
  1133. Bit rate: 29.9 kb/s
  1134. Frame rate: 0.357 FPS
  1135. Count of elements: 3173
  1136. Stream size: 31.6 MiB (0%)
  1137. Title: Swedish [Full]
  1138. Language: Swedish
  1139. Default: No
  1140. Forced: No
  1141. Menu
  1142. 00:00:00.000: en:Chapter 01
  1143. 00:05:02.885: en:Chapter 02
  1144. 00:11:58.217: en:Chapter 03
  1145. 00:18:38.909: en:Chapter 04
  1146. 00:27:00.452: en:Chapter 05
  1147. 00:37:21.239: en:Chapter 06
  1148. 00:48:01.879: en:Chapter 07
  1149. 00:59:51.462: en:Chapter 08
  1150. 01:04:06.634: en:Chapter 09
  1151. 01:09:51.145: en:Chapter 10
  1152. 01:18:29.371: en:Chapter 11
  1153. 01:28:59.625: en:Chapter 12
  1154. 01:33:48.289: en:Chapter 13
  1155. 01:46:38.558: en:Chapter 14
  1156. 02:05:39.323: en:Chapter 15
  1157. 02:13:03.600: en:Chapter 16
复制代码










回复

使用道具 举报

蓝光币
798
发表于 2024-2-8 08:29:15 | 显示全部楼层
楼主发贴辛苦了,谢谢楼主分享!我觉得蓝光电影网是注册对了!
回复

使用道具 举报

蓝光币
224
发表于 2024-2-8 18:12:52 | 显示全部楼层
楼主发贴辛苦了,谢谢楼主分享!
回复

使用道具 举报

蓝光币
146
发表于 2024-2-14 11:30:32 | 显示全部楼层

楼主太厉害了!楼主,电影应该很好看我觉得蓝光电影网真是个好地方!
回复

使用道具 举报

蓝光币
798
发表于 2024-2-15 16:06:30 | 显示全部楼层
楼主发贴辛苦了,谢谢楼主分享!我觉得蓝光电影网是注册对了!
回复

使用道具 举报

蓝光币
10
发表于 2024-2-16 21:51:41 | 显示全部楼层
楼主发贴辛苦了,谢谢楼主分享!我觉得蓝光电影网是注册对了!
回复

使用道具 举报

蓝光币
796
发表于 2024-2-20 19:08:11 | 显示全部楼层
楼主发贴辛苦了,谢谢楼主分享!我觉得蓝光电影网是注册对了!
回复

使用道具 举报

蓝光币
0
发表于 2024-2-21 16:18:21 | 显示全部楼层
楼主发贴辛苦了,谢谢楼主分享
回复

使用道具 举报

蓝光币
116
发表于 2024-3-3 15:48:09 | 显示全部楼层
楼主发贴辛苦了,谢谢楼主分享!我觉得蓝光电影网是注册对了!
回复

使用道具 举报

蓝光币
262
发表于 2024-3-4 10:22:50 | 显示全部楼层
楼主发贴辛苦了,谢谢楼主分享!我觉得蓝光电影网是注册对了!
回复

使用道具 举报

懒得打字嘛,点击右侧快捷回复 【右侧内容,后台自定义】
您需要登录后才可以回帖 登录 | 立即加入

本版积分规则

Archiver| |网站地图

Copyright © 2024 Comsenz Inc. Powered by 蓝光电影网

本站内容由用户自主分享和转载自互联网,转载目的在于传递更多信息,并不代表本网赞同其观点和对其真实性负责。

如有侵权、违反国家法律政策行为,请联系我们,我们会第一时间及时清除和处理!

举报反馈邮箱:4k1080.com@gmail.com

快速回复 返回顶部 返回列表