找回密码

查看: 1411|回复: 6

[2160p-WEB] 东京审判 [国英日三语混合中字].The.Tokyo.Trial.2006.2160p.WEB-DL.H265.DDP2.0-TAG 12.80GB

[复制链接]
蓝光币
2048
发表于 2024-2-8 18:45:40 | 显示全部楼层 |阅读模式
东京审判 [国英日三语夹杂中字].The.Tokyo.Trial.2006.2160p.WEB-DL.H265.DDP2.0-TAG 12.80GB-1.jpg

◎译  名 The Tokyo Trial / 远东国际大审判
◎片  名 东京审判
◎年  代 2006
◎产  地 中国大陆
◎类  别 剧情 / 历史 / 战争 / 犯罪
◎语  言 英语 / 日语 / 汉语普通话
◎上映日期 2006-09-01(中国大陆)
◎IMDb评分  6.6/10 from 486 users
◎IMDb链接  https://www.imdb.com/title/tt0884868/
◎豆瓣评分 7.5/10 from 91,028 users
◎豆瓣链接 https://movie.douban.com/subject/1949812/
◎片  长 111分钟
◎导  演 高群书 / Qunshu Gao
◎演  员 刘松仁 / Damian Lau
      朱孝天 / Ken Zhu
      曾江 / Kenneth Tsang
      谢君豪 / Kwan-Ho Tse
      林熙蕾 / Kelly Lin
      英达 / Da Ying
      曾志伟 / Eric Tsang
      王在和 / Zai-he Wang
      莫岐 / Qi Mo
      丹·茨斯基 / Dan Ziskie
      姚建雄 / Jianxiong Yao (饰 东乡茂德)
      约翰·亨利·考克斯 / John Henry Cox (饰 约瑟夫季南)
      刘威葳 / Vieven Liu
      白雪云 / Xueyun Bai
      山鹰 / Shanin
◎编  剧 唐灏 / Hao Tang
      张思涛 / Sitao Zhang
      张弛 / Chi Zhang
      胡坤 / Kun Hu
◎制  片  人 高群书 / Qunshu Gao
      郑全刚 / Quangang Zheng
◎摄  影 张锡贵 / Xigui Zhang
◎制片治理 高群书 / Qunshu Gao
◎行动特技 李忠志 / Chung Chi Li
◎其  它 星野晃 / Hoshino Aki
      小池幸次 / Koji Koike
      刘林宗 / Linzong Liu
      大冢忍 / Shinobu Otsuka
      任仲伦 / Zhonglun Ren

◎简  介 

  1946年,远东国际军事法庭在东京审判日本战犯,那时法庭由11个国家的11名法官组成,受中国百姓政府的委任,以梅汝璈(刘松仁 饰)为首的中公法官在3月20日飞抵东京。《至公报》记者肖南(朱孝天 饰)负责远东国际军事法庭的全程跟踪报道,战前相爱的情人和田芳子(林熙蕾 饰)与他相 会。在宴会上,肖南目击了梅汝璈的冲动和欢乐,却预见应此行一定多艰难。
  审判终究开庭了,中国代表团遭遭到了各种困难和挫折,全部法庭不赞成死刑的人居然占大都。面临列公法官们的偏见与刁难,中公法官和检察官们与他们斗智斗勇,克服了对美公法令不领会的各种晦气身分,在庭审辩说中获得了上风。终极法庭能否能将东条英机等污名昭著的战犯送上绞刑架呢?

◎获奖情况 

  第9届上海国际电影节 (2006)
  亚洲新人奖 最好影片(提名) 高群书

  第26届中国电影金鸡奖 (2007)
  最好故事片(提名)
  最好导演(提名) 高群书
  最好编剧 张思涛,张弛,胡坤,唐灏
  最好男配角(提名) 刘松仁
  最好录音(提名) 刘林宗

  第29届公共电影百花奖 (2008)
  最好故事片(提名)
  最好导演(提名) 高群书
  最好男配角(提名) 刘松仁

  第12届中国电影华表奖 (2007)
  优异故事片奖
  优异导演奖 高群书

  第8届中国长春电影节 (2006)
  评委会出格奖

  1. General
  2. Unique ID : 50880234198906892739206167777624008145 (0x26472D39BA654F9606B94646029525D1)
  3. Complete name :东京审判.The.Tokyo.Trial.2006.4K.WEB-DL.H265.DDP2.0-TAG.mkv
  4. Format : Matroska
  5. Format version : Version 4
  6. File size : 12.8 GiB
  7. Duration : 1 h 47 min
  8. Overall bit rate : 17.1 Mb/s
  9. Encoded date : UTC 2021-03-06 11:25:28
  10. Writing application : mkvmerge v51.0.0 ('I Wish') 64-bit
  11. Writing library : libebml v1.4.0 + libmatroska v1.6.2

  12. Video
  13. ID : 1
  14. Format : HEVC
  15. Format/Info : High Efficiency Video Coding
  16. Format profile : Main@L5@High
  17. Codec ID : V_MPEGH/ISO/HEVC
  18. Duration : 1 h 47 min
  19. Bit rate : 17.0 Mb/s
  20. Width : 3 840 pixels
  21. Height : 2 152 pixels
  22. Display aspect ratio : 16:9
  23. Frame rate mode : Constant
  24. Frame rate : 25.000 FPS
  25. Color space : YUV
  26. Chroma subsampling : 4:2:0
  27. Bit depth : 8 bits
  28. Bits/(Pixel*Frame) : 0.082
  29. Stream size : 12.7 GiB (99%)
  30. Default : Yes
  31. Forced : No

  32. Audio
  33. ID : 2
  34. Format : E-AC-3
  35. Format/Info : Enhanced AC-3
  36. Commercial name : Dolby Digital Plus
  37. Codec ID : A_EAC3
  38. Duration : 1 h 47 min
  39. Bit rate mode : Constant
  40. Bit rate : 96.0 kb/s
  41. Channel(s) : 2 channels
  42. Channel layout : L R
  43. Sampling rate : 48.0 kHz
  44. Frame rate : 31.250 FPS (1536 SPF)
  45. Compression mode : Lossy
  46. Stream size : 73.6 MiB (1%)
  47. Service kind : Complete Main
  48. Default : Yes
  49. Forced : No
复制代码
东京审判 [国英日三语夹杂中字].The.Tokyo.Trial.2006.2160p.WEB-DL.H265.DDP2.0-TAG 12.80GB-2.jpg









回复

使用道具 举报

蓝光币
861
发表于 2024-2-9 11:49:12 | 显示全部楼层
楼主发贴辛苦了,谢谢楼主分享!我觉得蓝光电影网是注册对了!
回复

使用道具 举报

蓝光币
959
发表于 2024-2-10 20:55:44 | 显示全部楼层

这个帖子不回对不起自己!我想我是一天也不能离开蓝光电影网。
回复

使用道具 举报

蓝光币
235
发表于 2024-2-11 09:08:20 | 显示全部楼层
楼主发贴辛苦了,谢谢楼主分享!
回复

使用道具 举报

蓝光币
688
发表于 2024-2-11 22:49:55 | 显示全部楼层

感谢楼主的无私分享!要想蓝光电影网好 就靠你我他
回复

使用道具 举报

蓝光币
855
发表于 2024-2-18 19:08:01 | 显示全部楼层
楼主发贴辛苦了,谢谢楼主分享!我觉得蓝光电影网是注册对了!
回复

使用道具 举报

蓝光币
859
发表于 2024-2-20 19:09:13 | 显示全部楼层
楼主发贴辛苦了,谢谢楼主分享!我觉得蓝光电影网是注册对了!
回复

使用道具 举报

懒得打字嘛,点击右侧快捷回复 【右侧内容,后台自定义】
您需要登录后才可以回帖 登录 | 立即加入

本版积分规则

Archiver| |网站地图

Copyright © 2024 Comsenz Inc. Powered by 蓝光电影网

本站内容由用户自主分享和转载自互联网,转载目的在于传递更多信息,并不代表本网赞同其观点和对其真实性负责。

如有侵权、违反国家法律政策行为,请联系我们,我们会第一时间及时清除和处理!

举报反馈邮箱:4k1080.com@gmail.com

快速回复 返回顶部 返回列表