找回密码

查看: 339|回复: 1

[2160p] 饥饿游戏:鸣鸟与蛇之歌.The.Hunger.Games.The.Ballad.of.Songbirds.And.Snakes.2023.2160p.REMUX.For.LGTVs.DV.HDR.ENG.LATINO.DDP5.1.DV.x265.MP4-BEN.THE.MEN 65.96GB

[复制链接]
蓝光币
1917
发表于 2024-2-22 12:23:55 | 显示全部楼层 |阅读模式


◎译  名 饥饿游戏:鸣鸟与蛇之歌 / 饥饿游戏前传:鸣鸟与灵蛇之歌(港) / 饥饿游戏:鸣鸟与游蛇之歌(台) / 饥饿游戏:鸣鸟与蛇的歌谣 / 鸣鸟与蛇之歌 / 鸣鸟与蛇的歌谣 / 鸣禽与蛇的歌谣 / 饥饿游戏前传 / The Hunger Games: The Ballad of Songbirds and Snakes
◎片  名 The Hunger Games: The Ballad of Songbirds & Snakes
◎年  代 2023
◎产  地 美国
◎类  别 剧情 / 行动 / 科幻 / 惊悚 / 战争 / 冒险
◎语  言 英语
◎上映日期 2023-11-15(法国) / 2023-11-17(美国/中国大陆)
◎IMDb评星  ★★★★★★★☆☆☆
◎IMDb评分  6.8/10 from 98,960 users
◎IMDb链接  https://www.imdb.com/title/tt10545296/
◎豆瓣评星 ★★★✦☆
◎豆瓣评分 6.7/10 from 67,573 users
◎豆瓣链接 https://movie.douban.com/subject/34438298/
◎片  长 158分钟
◎导  演 弗朗西斯·劳伦斯 / Francis Lawrence
◎演  员 汤姆·布莱斯 / Tom Blyth | 饰 科里奥兰纳斯·斯诺 Coriolanus Snow
      瑞秋·齐格勒 / Rachel Zegler | 饰 露西·格蕾·贝尔德 Lucy Gray Baird
      彼特·丁拉基 / Peter Dinklage | 饰 卡斯卡·海波顿校长 Casca Highbottom
      乔什·安德烈斯·里维拉 / Josh Andrés Rivera | 饰 塞詹纳斯·普林斯 Sejanus Plinth
      亨特·莎弗 / Hunter Schafer | 饰 泰格里斯·斯诺 Tigris Snow
      维奥拉·戴维斯 / Viola Davis | 饰 高尔博士 Dr. Volumnia Gaul
      詹森·舒瓦兹曼 / Jason Schwartzman | 饰 卢克莱修·“乐奇”·富立克曼 Lucretius 'Lucky' Flickerman
      伯恩·戈曼 / Burn Gorman | 饰 批示官 Commander Hoff
      菲奥纽拉·弗拉纳根 / Fionnula Flanagan | 饰 奶奶 Grandma'am
      达科·夏皮罗 / Dakota Shapiro | 饰 Billy Taupe
      伊索贝尔·杰斯珀·琼斯 / Isobel Jesper Jones | 饰 Mayfair Lipp
      麦肯齐·兰辛 / Mackenzie Lansing | 饰 Coral
      艾琳·伯姆 / Irene Böhm | 饰 Lamina
      阿什利·廖 / Ashley Liao | 饰 Clemensia Dovecote
      艾米丽·霍菲尔 / Amélie Hoeferle | 饰 Vipsania Sickle
      谢尔·布鲁沙伊特 / Kjell Brutscheidt | 饰 Tanner
      弗洛拉·蒂曼 / Flora Thiemann | 饰 Livia Carden
      乔治·索纳 / George Somner | 饰 Spruce
      阿约梅德·阿德根 / Ayomide Adegun | 饰 Pliny 'Pup' Harrington
      佐伊·蕾妮 / Zoe Renee | 饰 Lysistrata Vickers
      迈克尔·格雷科 / Michael Greco | 饰 Strabo Plinth
      莉莉·玛丽亚·库珀 / Lilly Maria Cooper | 饰 Arachne Crane
      卡尔·斯宾塞 / Carl Spencer | 饰 Smiley
      德克斯特·索尔·安塞尔 / Dexter Sol Ansell | 饰 童年科里奥兰纳斯·斯诺 Young Coriolanus
      罗莎·戈茨勒 / Rosa Gotzler | 饰 童年泰格里斯·斯诺 Young Tigris
      雅典娜·史催特 / Athena Strates | 饰 Persephone Price
      迪米特里·阿博尔德 / Dimitri Abold | 饰 Reaper
      凯特琳·阿金佩鲁米 / Kaitlyn Akinpelumi | 饰 Domita Whimsiwick
       Mekyas Mulugeta | 饰 Urban Canville
       Florian Burgkart | 饰 Hilarius Heavensbee
       Max Raphael | 饰 Festus Creed
       Joshua Kantara | 饰 Gaius Breen
       Emma Frieda Brüggler | 饰 Diana Ring
       Anni Baumann | 饰 Iphigenia Moss
       Serena Oexle | 饰 Juno Phipps
       Yalany Marschner | 饰 Dennis Fling
       Aaron Finn Schultz | 饰 Apollo Ring
      丹妮拉·格鲁伯特 / Daniela Grubert
      露娜·库斯 / Luna Kuse | 饰 Brandy
      尼克·本森 / Nick Benson | 饰 Jessup
      沃恩·蕾莉 / Vaughan Reilly | 饰 Maude Ivory
      斯科特·弗兰 / Scott Folan | 饰 Beanpole
      唐纳德·萨瑟兰 / Donald Sutherland
◎编  剧 迈克尔·阿恩特 / Michael Arndt
      迈克尔·莱斯利 / Michael Lesslie
      苏珊·科林斯 / Suzanne Collins
◎音  乐 詹姆斯·纽顿·霍华德 / James Newton Howard
◎服  装 崔茜·萨默维尔 / Trish Summerville
◎化  妆 海克·默克尔 / Heike Merker
◎行动特技 汉纳斯·帕斯特 / Hannes Pastor
◎简  介 
  18岁的科里奥兰纳斯·斯诺(汤姆·布莱斯 饰)被选为第十届饥饿游戏的导师,与来自第十二区的贫苦女孩露西·格蕾·贝尔德(瑞秋·齐格勒 饰)成为了“生死相依”的命运配合体。竞技场上,这是一场关乎自在、食品,甚至是尊重与权利的生死角逐;竞技场外,不忍与好心使斯诺决议掉臂一切帮助露西在这场游戏中赢告捷利......当活下去的愿望与所遵照的法则各走各路,命运的齿轮紧抓入自己手中时,他又该若何决定?
  影片改编自苏珊·柯林斯的同名小说。
  1. Format                                   : MPEG-4
  2. Format profile                           : Base Media
  3. Codec ID                                 : isom (isom/dby1/iso2/mp41)
  4. File size                                : 66.0 GiB
  5. Duration                                 : 2 h 37 min
  6. Overall bit rate mode                    : Variable
  7. Overall bit rate                         : 60.1 Mb/s
  8. Frame rate                               : 23.976 FPS
  9. Movie name                               : The.Hunger.Games.The.Ballad.of.Songbirds.And.Snakes.2023.2160p.[Ben The Men]
  10. Tagged date                              : 2024-02-08 23:17:05 UTC
  11. Writing application                      : Lavf60.3.100
  12. Video
  13. ID                                       : 1
  14. Format                                   : HEVC
  15. Format/Info                              : High Efficiency Video Coding
  16. Format profile                           : Main 10@L5.1@High
  17. HDR format                               : Dolby Vision, Version 1.0, dvhe.08.06, BL+RPU, HDR10 compatible / SMPTE ST 2086, HDR10 compatible
  18. Codec ID                                 : hev1
  19. Codec ID/Info                            : High Efficiency Video Coding
  20. Duration                                 : 2 h 37 min
  21. Bit rate                                 : 58.1 Mb/s
  22. Width                                    : 3 840 pixels
  23. Height                                   : 2 160 pixels
  24. Display aspect ratio                     : 16:9
  25. Frame rate mode                          : Constant
  26. Frame rate                               : 23.976 (24000/1001) FPS
  27. Color space                              : YUV
  28. Chroma subsampling                       : 4:2:0 (Type 2)
  29. Bit depth                                : 10 bits
  30. Bits/(Pixel*Frame)                       : 0.292
  31. Stream size                              : 63.8 GiB (97%)
  32. Title                                    : BEN.THE.MEN
  33. Language                                 : English
  34. Tagged date                              : 2024-02-08 23:17:05 UTC
  35. Color range                              : Limited
  36. Color primaries                          : BT.2020
  37. Transfer characteristics                 : PQ
  38. Matrix coefficients                      : BT.2020 non-constant
  39. Mastering display color primaries        : Display P3
  40. Mastering display luminance              : min: 0.0001 cd/m2, max: 1000 cd/m2
  41. Maximum Content Light Level              : 999 cd/m2
  42. Maximum Frame-Average Light Level        : 122 cd/m2
  43. Codec configuration box                  : hvcC+dvvC
  44. Audio #1
  45. ID                                       : 2
  46. Format                                   : E-AC-3
  47. Format/Info                              : Enhanced AC-3
  48. Commercial name                          : Dolby Digital Plus
  49. Codec ID                                 : ec-3
  50. Duration                                 : 2 h 37 min
  51. Bit rate mode                            : Constant
  52. Bit rate                                 : 960 kb/s
  53. Channel(s)                               : 6 channels
  54. Channel layout                           : L R C LFE Ls Rs
  55. Sampling rate                            : 48.0 kHz
  56. Frame rate                               : 31.250 FPS (1536 SPF)
  57. Compression mode                         : Lossy
  58. Stream size                              : 1.05 GiB (2%)
  59. Title                                    : BTM DDP5.1
  60. Language                                 : English
  61. Service kind                             : Complete Main
  62. Default                                  : Yes
  63. Alternate group                          : 1
  64. Tagged date                              : 2024-02-08 23:17:05 UTC
  65. Audio #2
  66. ID                                       : 3
  67. Format                                   : E-AC-3
  68. Format/Info                              : Enhanced AC-3
  69. Commercial name                          : Dolby Digital Plus
  70. Codec ID                                 : ec-3
  71. Duration                                 : 2 h 37 min
  72. Bit rate mode                            : Constant
  73. Bit rate                                 : 960 kb/s
  74. Channel(s)                               : 6 channels
  75. Channel layout                           : L R C LFE Ls Rs
  76. Sampling rate                            : 48.0 kHz
  77. Frame rate                               : 31.250 FPS (1536 SPF)
  78. Compression mode                         : Lossy
  79. Stream size                              : 1.05 GiB (2%)
  80. Title                                    : BTM DDP5.1
  81. Language                                 : Spanish
  82. Service kind                             : Complete Main
  83. Default                                  : Yes
  84. Alternate group                          : 2
  85. Tagged date                              : 2024-02-08 23:17:05 UTC
复制代码









回复

使用道具 举报

蓝光币
363
发表于 2024-2-22 14:54:20 | 显示全部楼层
感谢分享~~~~~~~~
回复

使用道具 举报

懒得打字嘛,点击右侧快捷回复 【右侧内容,后台自定义】
您需要登录后才可以回帖 登录 | 立即加入

本版积分规则

Archiver| |网站地图

Copyright © 2024 Comsenz Inc. Powered by 蓝光电影网

本站内容由用户自主分享和转载自互联网,转载目的在于传递更多信息,并不代表本网赞同其观点和对其真实性负责。

如有侵权、违反国家法律政策行为,请联系我们,我们会第一时间及时清除和处理!

举报反馈邮箱:4k1080.com@gmail.com

快速回复 返回顶部 返回列表