找回密码

查看: 455|回复: 1

[UHD.HEVC] 只想爱你.Anyone.But.You.2023.REPACK.2160p.UPSCALE.BluRay.HEVC.10Bit.DD5.1-R&H 17.02GB

[复制链接]
蓝光币
1925
发表于 2024-2-22 12:25:45 | 显示全部楼层 |阅读模式


◎译  名 只想爱你 / 真的狠爱你(港) / 爱爱爱上你(台) / 除你都可
◎片  名 Anyone But You
◎年  代 2023
◎产  地 美国
◎类  别 笑剧 / 恋爱
◎语  言 英语
◎上映日期 2023-12-22(美国)
◎IMDb评星  ★★★★★★✦☆☆☆
◎IMDb评分  6.3/10 from 32,458 users
◎IMDb链接  https://www.imdb.com/title/tt26047818/
◎豆瓣评星 ★★★☆☆
◎豆瓣评分 5.7/10 from 3,971 users
◎豆瓣链接 https://movie.douban.com/subject/36245733/
◎片  长 103分钟
◎导  演 威尔·古勒 / Will Gluck
◎演  员 西德妮·斯威尼 / Sydney Sweeney | 饰 Bea
      格伦·鲍威尔 / Glen Powell | 饰 Ben
      亚历山德拉·希普 / Alexandra Shipp
      达伦·巴内特 / Darren Barnet
      布莱恩·布朗 / Bryan Brown
      乔·戴维森 / Joe Davidson
      加塔 / Gata
      瑞切尔·格里菲斯 / Rachel Griffiths
      米歇尔·赫德 / Michelle Hurd
      德蒙特·莫罗尼 / Dermot Mulroney
      哈德莉·罗宾逊 / Hadley Robinson
      纳德·拉格布 / Nader Ragheb | 饰 Kebab seller
      艾登·麦肯齐 / Aiden Mckenzie
       查理·弗雷泽 Charlee Fraser | 饰 Margaret
◎编  剧 威尔·古勒 / Will Gluck
      伊拉娜·沃尔珀特 / Ilana Wolpert
◎简  介 
  男才女貌的Bea(西德妮·斯威尼 Sydney Sweeney 饰)和 Ben(格伦·鲍威尔 Glen Powell 饰)在初度约会时就发生一件天大误解,令二人情人未满就变仇人。谁知天意弄人,他们竟在一场异地婚礼上重逢!面临亲友戚友大大力的推波助澜,各怀鬼胎的二人决议顺 应民意假扮情侣。在仇人和情侣之间,你来我往,狠狠恋上。
  1. Format                      : Matroska
  2. Format version              : Version 4
  3. File size                   : 17.0 GiB
  4. Duration                    : 1 h 43 min
  5. Overall bit rate            : 23.5 Mb/s
  6. Frame rate                  : 23.976 FPS
  7. Writing application         : Lavf60.20.100
  8. Writing library             : Lavf60.20.100
  9. ErrorDetectionType          : Per level 1
  10. VIDEOAI                     : Enhanced using ahq-12. Changed resolution to 3840x1608
  11. Video
  12. ID                          : 1
  13. Format                      : HEVC
  14. Format/Info                 : High Efficiency Video Coding
  15. Format profile              : Main 10@L5@High
  16. Codec ID                    : V_MPEGH/ISO/HEVC
  17. Duration                    : 1 h 43 min
  18. Bit rate                    : 5 982 kb/s
  19. Width                       : 3 840 pixels
  20. Height                      : 1 608 pixels
  21. Display aspect ratio        : 2.40:1
  22. Frame rate mode             : Constant
  23. Frame rate                  : 23.976 (24000/1001) FPS
  24. Color space                 : YUV
  25. Chroma subsampling          : 4:2:0
  26. Bit depth                   : 10 bits
  27. Bits/(Pixel*Frame)          : 0.040
  28. Stream size                 : 4.32 GiB (25%)
  29. Writing library             : Lavc60.37.100 hevc_nvenc
  30. Default                     : No
  31. Forced                      : No
  32. Color range                 : Limited
  33. Audio
  34. ID                          : 2
  35. Format                      : AC-3
  36. Format/Info                 : Audio Coding 3
  37. Commercial name             : Dolby Digital
  38. Codec ID                    : A_AC3
  39. Duration                    : 1 h 43 min
  40. Bit rate mode               : Constant
  41. Bit rate                    : 384 kb/s
  42. Channel(s)                  : 6 channels
  43. Channel layout              : L R C LFE Ls Rs
  44. Sampling rate               : 48.0 kHz
  45. Frame rate                  : 31.250 FPS (1536 SPF)
  46. Bit depth                   : 32 bits
  47. Compression mode            : Lossy
  48. Stream size                 : 284 MiB (2%)
  49. Language                    : English
  50. Service kind                : Complete Main
  51. Default                     : No
  52. Forced                      : No
复制代码









只想爱你.Anyone.But.You.2023.REPACK.2160p.UPSCALE.BluRay.HEVC.10Bit.DD5.1-R&H 17.02GB
回复

使用道具 举报

蓝光币
804
发表于 2024-2-22 19:20:28 | 显示全部楼层
楼主发贴辛苦了,谢谢楼主分享!我觉得蓝光电影网是注册对了!
回复

使用道具 举报

懒得打字嘛,点击右侧快捷回复 【右侧内容,后台自定义】
您需要登录后才可以回帖 登录 | 立即加入

本版积分规则

Archiver| |网站地图

Copyright © 2024 Comsenz Inc. Powered by 蓝光电影网

本站内容由用户自主分享和转载自互联网,转载目的在于传递更多信息,并不代表本网赞同其观点和对其真实性负责。

如有侵权、违反国家法律政策行为,请联系我们,我们会第一时间及时清除和处理!

举报反馈邮箱:4k1080.com@gmail.com

快速回复 返回顶部 返回列表