找回密码

查看: 370|回复: 0

[2160p-WEB] 萨特本.Saltburn.2023.Eng.Fre.Ger.Ita.Por.Spa.Tur.Pol.Hin.Jpn.2160p.WEBMux.HDR.HDR10Plus.HEVC.DDP.Atmos-SGF 21.19GB

[复制链接]
蓝光币
1917
发表于 2024-2-22 15:56:11 | 显示全部楼层 |阅读模式


◎译  名 萨特本 / 盐灼之痛 / 索尔特本 / 盐灼 / 索尔特本庄园
◎片  名 Saltburn
◎年  代 2023
◎产  地 美国 / 英国
◎类  别 剧情 / 笑剧 / 惊悚
◎语  言 英语
◎上映日期 2023-08-31(特柳赖德电影节) / 2023-10-04(伦敦电影节) / 2023-11-17(美国点映) / 2023-11-22(美国)
◎IMDb评星  ★★★★★★★☆☆☆
◎IMDb评分  7.0/10 from 174,187 users
◎IMDb链接  https://www.imdb.com/title/tt17351924/
◎豆瓣评星 ★★★✦☆
◎豆瓣评分 6.7/10 from 14,908 users
◎豆瓣链接 https://movie.douban.com/subject/35749948/
◎片  长 131分钟
◎导  演 埃默拉尔德·芬内尔 / Emerald Fennell
◎演  员 巴里·基奥恩 / Barry Keoghan | 饰 Oliver Quick
      雅各布·艾洛蒂 / Jacob Elordi | 饰 Felix Catton
      裴淳华 / Rosamund Pike | 饰 Elspeth Catton
      理查德·E·格兰特 / Richard E. Grant | 饰 Sir James Catton
      艾莉森·奥利弗 / Alison Oliver | 饰 Venetia Catton
      阿奇·马德基 / Archie Madekwe | 饰 Farleigh Start
      凯瑞·穆里根 / Carey Mulligan | 饰 Poor Dear Pamela
      里斯·谢尔史姑娘 / Reece Shearsmith | 饰 Professor Ware
      伊万·米切尔 / Ewan Mitchell | 饰 Michael Gavey
      保罗·瑞斯 / Paul Rhys | 饰 Duncan
      洛利·阿德福普 / Lolly Adefope | 饰 Lady Daphne
      赛迪·斯欧维奥 / Sadie Soverall | 饰 Annabel
      里奇·科特雷尔 / Richie Cotterell | 饰 Harry
       米莉·肯特 Millie Kent | 饰 India
      威廉·吉布森 / Will Gibson | 饰 Jake
      塔莎·利姆 / Tasha Lim | 饰 Camilla
      阿莉亚·阿伯丁 / Aleah Aberdeen | 饰 Alicia
      马特·卡弗 / Matthew Carver | 饰 Benjy
      加布里埃尔·比塞特 / - 史姑娘 Gabriel Bisset-Smith | 饰 Reg Starter
      萨加·斯普尤斯·萨尔 / Saga Spjuth-Säll | 饰 Sam
      格林·格里姆施泰德 / Glyn Grimstead | 饰 Taxi Driver
      约书亚·塞缪尔斯 / Joshua Samuels | 饰 Liam
      朱利安·劳埃德·帕特恩 / Julian Lloyd Patten | 饰 Joshua
      米歇尔·托马斯 / Michelle Thomas | 饰 Camilla
      皮埃尔·伯格曼 / Pierre Bergman | 饰 Man at Bar
      莫德·德鲁因 / Maud Druine | 饰 Jen
      艾莉森·马丁·琼斯 / Alison Martin Jones | 饰 Elegant Party Guest
      奥利维亚·哈纳罕-巴恩斯 / Olivia Hanrahan-Barnes | 饰 Maid
      约书亚·麦圭尔 / Joshua McGuire | 饰 Henry
      邵恩·杜里 / Shaun Dooley | 饰 Jeff Quick
      利亚姆·爱德华兹 / Liam Edwards   | 饰 University Student
◎编  剧 埃默拉尔德·芬内尔 / Emerald Fennell
◎制  片  人 玛格特·罗比 / Margot Robbie
◎音  乐 安东尼·威利斯 / Anthony Willis
◎摄  影 莱纳斯·桑德格伦 / Linus Sandgren
◎服  装  Sophie Canale
◎简  介 
  报告关于特权和愿望的邪恶故事:奥利弗(巴里·基奥恩 Barry Keoghan 饰)尽力在牛津大学里寻觅自己的位置,他被魅力诱人贵族气派的菲利克斯(雅各布·艾洛蒂 Jacob Elordi 饰)所吸引,后者约请他去到自家庞大的萨特本庄园,度过一个永生难忘的炎天。
◎获奖情况 
  第81届金球奖 (2024)
  电影类 剧情片最好男配角(提名) 巴里·基奥恩
  电影类 最好女配角(提名) 裴淳华
  第77届英国电影学院奖 (2024)
  电影奖 最好英国影片(提名) 乔西·麦克纳马拉,埃默拉尔德·芬内尔,玛格特·罗比
  电影奖 最好男配角(提名) 巴里·基奥恩
  电影奖 最好男配角(提名) 雅各布·艾洛蒂
  电影奖 最好女配角(提名) 裴淳华
  电影奖 最好原创配乐(提名) 安东尼·威利斯
  第29届美国批评家挑选电影奖 (2024)
  最好影片(提名)
  最好摄影(提名) 莱纳斯·桑德格伦
  最好美术指导(提名) 苏齐·戴维斯,夏洛特·德瑞克斯
  1. General
  2. Unique ID: 2892993780882823873134530283969055391 (0x22D2B9B15A6C0F7722EB73AF5E60A9F)
  3. Complete name: Saltburn.2023.Eng.Fre.Ger.Ita.Por.Spa.Tur.Pol.Hin.Jpn.2160p.WEBMux.HDR.HDR10Plus.HEVC.DDP.Atmos-SGF.mkv
  4. Format: Matroska
  5. Format version: Version 4 / Version 2
  6. File size: 21.2 GiB
  7. Duration: 2 h 11 min
  8. Overall bit rate: 23.0 Mb/s
  9. Frame rate: 24.000 FPS
  10. Encoded date: 2024-02-11 04:19:18 UTC
  11. Writing application: mkvmerge v82.0 ('I'm The President') 64-bit
  12. Writing library: libebml v1.4.5 + libmatroska v1.7.1
  13. Video
  14. ID: 1
  15. Format: HEVC
  16. Format/Info: High Efficiency Video Coding
  17. Format profile: Main 10@L5@Main
  18. HDR format: SMPTE ST 2094 App 4, Version 1, HDR10+ Profile B compatible / SMPTE ST 2086, HDR10 compatible
  19. Codec ID: V_MPEGH/ISO/HEVC
  20. Duration: 2 h 11 min
  21. Bit rate: 14.8 Mb/s
  22. Width: 2 880 pixels
  23. Height: 2 160 pixels
  24. Display aspect ratio: 4:3
  25. Frame rate mode: Constant
  26. Frame rate: 24.000 FPS
  27. Color space: YUV
  28. Chroma subsampling: 4:2:0
  29. Bit depth: 10 bits
  30. Bits/(Pixel*Frame): 0.099
  31. Stream size: 13.6 GiB (64%)
  32. Default: Yes
  33. Forced: No
  34. Color range: Limited
  35. Color primaries: BT.2020
  36. Transfer characteristics: PQ
  37. Matrix coefficients: BT.2020 non-constant
  38. Mastering display color primar: Display P3
  39. Mastering display luminance: min: 0.0001 cd/m2, max: 1000 cd/m2
  40. Maximum Content Light Level: 460 cd/m2
  41. Maximum Frame-Average Light Le: 191 cd/m2
  42. Audio #1
  43. ID: 2
  44. Format: E-AC-3 JOC
  45. Format/Info: Enhanced AC-3 with Joint Object Coding
  46. Commercial name: Dolby Digital Plus with Dolby Atmos
  47. Codec ID: A_EAC3
  48. Duration: 2 h 11 min
  49. Bit rate mode: Constant
  50. Bit rate: 576 kb/s
  51. Channel(s): 6 channels
  52. Channel layout: L R C LFE Ls Rs
  53. Sampling rate: 48.0 kHz
  54. Frame rate: 31.250 FPS (1536 SPF)
  55. Compression mode: Lossy
  56. Stream size: 543 MiB (3%)
  57. Title: English [Dolby Digital Plus Atmos 5.1]
  58. Language: English
  59. Service kind: Complete Main
  60. Default: Yes
  61. Forced: No
  62. Complexity index: 16
  63. Number of dynamic objects: 15
  64. Bed channel count: 1 channel
  65. Bed channel configuration: LFE
  66. Audio #2
  67. ID: 3
  68. Format: E-AC-3
  69. Format/Info: Enhanced AC-3
  70. Commercial name: Dolby Digital Plus
  71. Codec ID: A_EAC3
  72. Duration: 2 h 11 min
  73. Bit rate mode: Constant
  74. Bit rate: 640 kb/s
  75. Channel(s): 6 channels
  76. Channel layout: L R C LFE Ls Rs
  77. Sampling rate: 48.0 kHz
  78. Frame rate: 31.250 FPS (1536 SPF)
  79. Compression mode: Lossy
  80. Stream size: 603 MiB (3%)
  81. Title: English [Dolby Digital Plus 5.1]
  82. Language: English
  83. Service kind: Complete Main
  84. Default: No
  85. Forced: No
  86. Audio #3
  87. ID: 4
  88. Format: E-AC-3
  89. Format/Info: Enhanced AC-3
  90. Commercial name: Dolby Digital Plus
  91. Codec ID: A_EAC3
  92. Duration: 2 h 11 min
  93. Bit rate mode: Constant
  94. Bit rate: 640 kb/s
  95. Channel(s): 6 channels
  96. Channel layout: L R C LFE Ls Rs
  97. Sampling rate: 48.0 kHz
  98. Frame rate: 31.250 FPS (1536 SPF)
  99. Compression mode: Lossy
  100. Stream size: 603 MiB (3%)
  101. Title: English [Audio Description]
  102. Language: English
  103. Service kind: Complete Main
  104. Default: No
  105. Forced: No
  106. Audio #4
  107. ID: 5
  108. Format: E-AC-3
  109. Format/Info: Enhanced AC-3
  110. Commercial name: Dolby Digital Plus
  111. Codec ID: A_EAC3
  112. Duration: 2 h 11 min
  113. Bit rate mode: Constant
  114. Bit rate: 640 kb/s
  115. Channel(s): 6 channels
  116. Channel layout: L R C LFE Ls Rs
  117. Sampling rate: 48.0 kHz
  118. Frame rate: 31.250 FPS (1536 SPF)
  119. Compression mode: Lossy
  120. Stream size: 603 MiB (3%)
  121. Title: French (France) [Dolby Digital Plus 5.1]
  122. Language: French (FR)
  123. Service kind: Complete Main
  124. Default: No
  125. Forced: No
  126. Audio #5
  127. ID: 6
  128. Format: E-AC-3
  129. Format/Info: Enhanced AC-3
  130. Commercial name: Dolby Digital Plus
  131. Codec ID: A_EAC3
  132. Duration: 2 h 11 min
  133. Bit rate mode: Constant
  134. Bit rate: 640 kb/s
  135. Channel(s): 6 channels
  136. Channel layout: L R C LFE Ls Rs
  137. Sampling rate: 48.0 kHz
  138. Frame rate: 31.250 FPS (1536 SPF)
  139. Compression mode: Lossy
  140. Stream size: 603 MiB (3%)
  141. Title: German [Dolby Digital Plus 5.1]
  142. Language: German
  143. Service kind: Complete Main
  144. Default: No
  145. Forced: No
  146. Audio #6
  147. ID: 7
  148. Format: E-AC-3
  149. Format/Info: Enhanced AC-3
  150. Commercial name: Dolby Digital Plus
  151. Codec ID: A_EAC3
  152. Duration: 2 h 11 min
  153. Bit rate mode: Constant
  154. Bit rate: 640 kb/s
  155. Channel(s): 6 channels
  156. Channel layout: L R C LFE Ls Rs
  157. Sampling rate: 48.0 kHz
  158. Frame rate: 31.250 FPS (1536 SPF)
  159. Compression mode: Lossy
  160. Stream size: 603 MiB (3%)
  161. Title: Italian [Dolby Digital Plus 5.1]
  162. Language: Italian
  163. Service kind: Complete Main
  164. Default: No
  165. Forced: No
  166. Audio #7
  167. ID: 8
  168. Format: E-AC-3
  169. Format/Info: Enhanced AC-3
  170. Commercial name: Dolby Digital Plus
  171. Codec ID: A_EAC3
  172. Duration: 2 h 11 min
  173. Bit rate mode: Constant
  174. Bit rate: 640 kb/s
  175. Channel(s): 6 channels
  176. Channel layout: L R C LFE Ls Rs
  177. Sampling rate: 48.0 kHz
  178. Frame rate: 31.250 FPS (1536 SPF)
  179. Compression mode: Lossy
  180. Stream size: 603 MiB (3%)
  181. Title: Portuguese (Brazil) [Dolby Digital Plus 5.1]
  182. Language: Portuguese (BR)
  183. Service kind: Complete Main
  184. Default: No
  185. Forced: No
  186. Audio #8
  187. ID: 9
  188. Format: E-AC-3
  189. Format/Info: Enhanced AC-3
  190. Commercial name: Dolby Digital Plus
  191. Codec ID: A_EAC3
  192. Duration: 2 h 11 min
  193. Bit rate mode: Constant
  194. Bit rate: 640 kb/s
  195. Channel(s): 6 channels
  196. Channel layout: L R C LFE Ls Rs
  197. Sampling rate: 48.0 kHz
  198. Frame rate: 31.250 FPS (1536 SPF)
  199. Compression mode: Lossy
  200. Stream size: 603 MiB (3%)
  201. Title: Spanish (Latin America) [Dolby Digital Plus 5.1]
  202. Language: Spanish (Latin America)
  203. Service kind: Complete Main
  204. Default: No
  205. Forced: No
  206. Audio #9
  207. ID: 10
  208. Format: E-AC-3
  209. Format/Info: Enhanced AC-3
  210. Commercial name: Dolby Digital Plus
  211. Codec ID: A_EAC3
  212. Duration: 2 h 11 min
  213. Bit rate mode: Constant
  214. Bit rate: 640 kb/s
  215. Channel(s): 6 channels
  216. Channel layout: L R C LFE Ls Rs
  217. Sampling rate: 48.0 kHz
  218. Frame rate: 31.250 FPS (1536 SPF)
  219. Compression mode: Lossy
  220. Stream size: 603 MiB (3%)
  221. Title: Spanish (Spain) [Dolby Digital Plus 5.1]
  222. Language: Spanish (ES)
  223. Service kind: Complete Main
  224. Default: No
  225. Forced: No
  226. Audio #10
  227. ID: 11
  228. Format: E-AC-3
  229. Format/Info: Enhanced AC-3
  230. Commercial name: Dolby Digital Plus
  231. Codec ID: A_EAC3
  232. Duration: 2 h 11 min
  233. Bit rate mode: Constant
  234. Bit rate: 640 kb/s
  235. Channel(s): 6 channels
  236. Channel layout: L R C LFE Ls Rs
  237. Sampling rate: 48.0 kHz
  238. Frame rate: 31.250 FPS (1536 SPF)
  239. Compression mode: Lossy
  240. Stream size: 603 MiB (3%)
  241. Title: Turkish [Dolby Digital Plus 5.1]
  242. Language: Turkish
  243. Service kind: Complete Main
  244. Default: No
  245. Forced: No
  246. Audio #11
  247. ID: 12
  248. Format: E-AC-3
  249. Format/Info: Enhanced AC-3
  250. Commercial name: Dolby Digital Plus
  251. Codec ID: A_EAC3
  252. Duration: 2 h 11 min
  253. Bit rate mode: Constant
  254. Bit rate: 640 kb/s
  255. Channel(s): 6 channels
  256. Channel layout: L R C LFE Ls Rs
  257. Sampling rate: 48.0 kHz
  258. Frame rate: 31.250 FPS (1536 SPF)
  259. Compression mode: Lossy
  260. Stream size: 603 MiB (3%)
  261. Title: Polish [Dolby Digital Plus 5.1]
  262. Language: Polish
  263. Service kind: Complete Main
  264. Default: No
  265. Forced: No
  266. Audio #12
  267. ID: 13
  268. Format: E-AC-3
  269. Format/Info: Enhanced AC-3
  270. Commercial name: Dolby Digital Plus
  271. Codec ID: A_EAC3
  272. Duration: 2 h 11 min
  273. Bit rate mode: Constant
  274. Bit rate: 640 kb/s
  275. Channel(s): 6 channels
  276. Channel layout: L R C LFE Ls Rs
  277. Sampling rate: 48.0 kHz
  278. Frame rate: 31.250 FPS (1536 SPF)
  279. Compression mode: Lossy
  280. Stream size: 603 MiB (3%)
  281. Title: Hindi [Dolby Digital Plus 5.1]
  282. Language: Hindi
  283. Service kind: Complete Main
  284. Default: No
  285. Forced: No
  286. Audio #13
  287. ID: 14
  288. Format: E-AC-3
  289. Format/Info: Enhanced AC-3
  290. Commercial name: Dolby Digital Plus
  291. Codec ID: A_EAC3
  292. Duration: 2 h 11 min
  293. Bit rate mode: Constant
  294. Bit rate: 640 kb/s
  295. Channel(s): 6 channels
  296. Channel layout: L R C LFE Ls Rs
  297. Sampling rate: 48.0 kHz
  298. Frame rate: 31.250 FPS (1536 SPF)
  299. Compression mode: Lossy
  300. Stream size: 603 MiB (3%)
  301. Title: Japanese [Dolby Digital Plus 5.1]
  302. Language: Japanese
  303. Service kind: Complete Main
  304. Default: No
  305. Forced: No
  306. Text #1
  307. ID: 15
  308. Format: UTF-8
  309. Codec ID: S_TEXT/UTF8
  310. Codec ID/Info: UTF-8 Plain Text
  311. Duration: 2 h 6 min
  312. Bit rate: 69 b/s
  313. Frame rate: 0.300 FPS
  314. Count of elements: 2271
  315. Stream size: 64.6 KiB (0%)
  316. Title: English [SDH]
  317. Language: English
  318. Default: No
  319. Forced: No
  320. Text #2
  321. ID: 16
  322. Format: UTF-8
  323. Codec ID: S_TEXT/UTF8
  324. Codec ID/Info: UTF-8 Plain Text
  325. Duration: 2 h 9 min
  326. Bit rate: 44 b/s
  327. Frame rate: 0.195 FPS
  328. Count of elements: 1519
  329. Stream size: 42.0 KiB (0%)
  330. Title: French (France) [Full]
  331. Language: French (FR)
  332. Default: No
  333. Forced: No
  334. Text #3
  335. ID: 17
  336. Format: UTF-8
  337. Codec ID: S_TEXT/UTF8
  338. Codec ID/Info: UTF-8 Plain Text
  339. Duration: 1 h 51 min
  340. Bit rate: 1 b/s
  341. Frame rate: 0.005 FPS
  342. Count of elements: 35
  343. Stream size: 1 017 Bytes (0%)
  344. Title: French (France) [Forced]
  345. Language: French (FR)
  346. Default: No
  347. Forced: No
  348. Text #4
  349. ID: 18
  350. Format: UTF-8
  351. Codec ID: S_TEXT/UTF8
  352. Codec ID/Info: UTF-8 Plain Text
  353. Duration: 2 h 9 min
  354. Bit rate: 45 b/s
  355. Frame rate: 0.196 FPS
  356. Count of elements: 1529
  357. Stream size: 42.9 KiB (0%)
  358. Title: German [Full]
  359. Language: German
  360. Default: No
  361. Forced: No
  362. Text #5
  363. ID: 19
  364. Format: UTF-8
  365. Codec ID: S_TEXT/UTF8
  366. Codec ID/Info: UTF-8 Plain Text
  367. Duration: 1 h 51 min
  368. Bit rate: 0 b/s
  369. Frame rate: 0.003 FPS
  370. Count of elements: 22
  371. Stream size: 636 Bytes (0%)
  372. Title: German [Forced]
  373. Language: German
  374. Default: No
  375. Forced: No
  376. Text #6
  377. ID: 20
  378. Format: UTF-8
  379. Codec ID: S_TEXT/UTF8
  380. Codec ID/Info: UTF-8 Plain Text
  381. Duration: 2 h 9 min
  382. Bit rate: 42 b/s
  383. Frame rate: 0.195 FPS
  384. Count of elements: 1515
  385. Stream size: 40.6 KiB (0%)
  386. Title: Italian [Full]
  387. Language: Italian
  388. Default: No
  389. Forced: No
  390. Text #7
  391. ID: 21
  392. Format: UTF-8
  393. Codec ID: S_TEXT/UTF8
  394. Codec ID/Info: UTF-8 Plain Text
  395. Duration: 1 h 51 min
  396. Bit rate: 0 b/s
  397. Frame rate: 0.003 FPS
  398. Count of elements: 20
  399. Stream size: 531 Bytes (0%)
  400. Title: Italian [Forced]
  401. Language: Italian
  402. Default: No
  403. Forced: No
  404. Text #8
  405. ID: 22
  406. Format: UTF-8
  407. Codec ID: S_TEXT/UTF8
  408. Codec ID/Info: UTF-8 Plain Text
  409. Duration: 2 h 9 min
  410. Bit rate: 47 b/s
  411. Frame rate: 0.196 FPS
  412. Count of elements: 1524
  413. Stream size: 44.8 KiB (0%)
  414. Title: Portuguese (Portugal) [Full]
  415. Language: Portuguese (PT)
  416. Default: No
  417. Forced: No
  418. Text #9
  419. ID: 23
  420. Format: UTF-8
  421. Codec ID: S_TEXT/UTF8
  422. Codec ID/Info: UTF-8 Plain Text
  423. Duration: 2 h 9 min
  424. Bit rate: 43 b/s
  425. Frame rate: 0.195 FPS
  426. Count of elements: 1516
  427. Stream size: 41.6 KiB (0%)
  428. Title: Portuguese (Brazil) [Full]
  429. Language: Portuguese (BR)
  430. Default: No
  431. Forced: No
  432. Text #10
  433. ID: 24
  434. Format: UTF-8
  435. Codec ID: S_TEXT/UTF8
  436. Codec ID/Info: UTF-8 Plain Text
  437. Duration: 1 h 51 min
  438. Bit rate: 0 b/s
  439. Frame rate: 0.004 FPS
  440. Count of elements: 24
  441. Stream size: 617 Bytes (0%)
  442. Title: Portuguese (Brazil) [Forced]
  443. Language: Portuguese (BR)
  444. Default: No
  445. Forced: No
  446. Text #11
  447. ID: 25
  448. Format: UTF-8
  449. Codec ID: S_TEXT/UTF8
  450. Codec ID/Info: UTF-8 Plain Text
  451. Duration: 2 h 9 min
  452. Bit rate: 42 b/s
  453. Frame rate: 0.196 FPS
  454. Count of elements: 1527
  455. Stream size: 40.3 KiB (0%)
  456. Title: Spanish (Latin America) [Full]
  457. Language: Spanish (Latin America)
  458. Default: No
  459. Forced: No
  460. Text #12
  461. ID: 26
  462. Format: UTF-8
  463. Codec ID: S_TEXT/UTF8
  464. Codec ID/Info: UTF-8 Plain Text
  465. Duration: 2 h 9 min
  466. Bit rate: 44 b/s
  467. Frame rate: 0.196 FPS
  468. Count of elements: 1529
  469. Stream size: 41.9 KiB (0%)
  470. Title: Spanish (Spain) [Full]
  471. Language: Spanish (ES)
  472. Default: No
  473. Forced: No
  474. Text #13
  475. ID: 27
  476. Format: UTF-8
  477. Codec ID: S_TEXT/UTF8
  478. Codec ID/Info: UTF-8 Plain Text
  479. Duration: 1 h 51 min
  480. Bit rate: 1 b/s
  481. Frame rate: 0.005 FPS
  482. Count of elements: 36
  483. Stream size: 899 Bytes (0%)
  484. Title: Spanish (Spain) [Forced]
  485. Language: Spanish (ES)
  486. Default: No
  487. Forced: No
  488. Text #14
  489. ID: 28
  490. Format: UTF-8
  491. Codec ID: S_TEXT/UTF8
  492. Codec ID/Info: UTF-8 Plain Text
  493. Duration: 2 h 9 min
  494. Bit rate: 44 b/s
  495. Frame rate: 0.196 FPS
  496. Count of elements: 1529
  497. Stream size: 42.1 KiB (0%)
  498. Title: Turkish [Full]
  499. Language: Turkish
  500. Default: No
  501. Forced: No
  502. Text #15
  503. ID: 29
  504. Format: UTF-8
  505. Codec ID: S_TEXT/UTF8
  506. Codec ID/Info: UTF-8 Plain Text
  507. Duration: 1 h 51 min
  508. Bit rate: 1 b/s
  509. Frame rate: 0.005 FPS
  510. Count of elements: 36
  511. Stream size: 1 011 Bytes (0%)
  512. Title: Turkish [Forced]
  513. Language: Turkish
  514. Default: No
  515. Forced: No
  516. Text #16
  517. ID: 30
  518. Format: UTF-8
  519. Codec ID: S_TEXT/UTF8
  520. Codec ID/Info: UTF-8 Plain Text
  521. Duration: 2 h 9 min
  522. Bit rate: 41 b/s
  523. Frame rate: 0.192 FPS
  524. Count of elements: 1491
  525. Stream size: 39.2 KiB (0%)
  526. Title: Polish [Full]
  527. Language: Polish
  528. Default: No
  529. Forced: No
  530. Text #17
  531. ID: 31
  532. Format: UTF-8
  533. Codec ID: S_TEXT/UTF8
  534. Codec ID/Info: UTF-8 Plain Text
  535. Duration: 2 h 9 min
  536. Bit rate: 108 b/s
  537. Frame rate: 0.194 FPS
  538. Count of elements: 1508
  539. Stream size: 103 KiB (0%)
  540. Title: Hindi [Full]
  541. Language: Hindi
  542. Default: No
  543. Forced: No
  544. Text #18
  545. ID: 32
  546. Format: UTF-8
  547. Codec ID: S_TEXT/UTF8
  548. Codec ID/Info: UTF-8 Plain Text
  549. Duration: 2 h 9 min
  550. Bit rate: 42 b/s
  551. Frame rate: 0.191 FPS
  552. Count of elements: 1486
  553. Stream size: 40.3 KiB (0%)
  554. Title: Japanese [Full]
  555. Language: Japanese
  556. Default: No
  557. Forced: No
  558. Text #19
  559. ID: 33
  560. Format: UTF-8
  561. Codec ID: S_TEXT/UTF8
  562. Codec ID/Info: UTF-8 Plain Text
  563. Duration: 2 h 9 min
  564. Bit rate: 81 b/s
  565. Frame rate: 0.195 FPS
  566. Count of elements: 1521
  567. Stream size: 77.3 KiB (0%)
  568. Title: Arabic [Full]
  569. Language: Arabic
  570. Default: No
  571. Forced: No
  572. Text #20
  573. ID: 34
  574. Format: UTF-8
  575. Codec ID: S_TEXT/UTF8
  576. Codec ID/Info: UTF-8 Plain Text
  577. Duration: 2 h 9 min
  578. Bit rate: 46 b/s
  579. Frame rate: 0.197 FPS
  580. Count of elements: 1536
  581. Stream size: 44.6 KiB (0%)
  582. Title: Chinese (Mandarin Simplified) [Full]
  583. Language: Mandarin (Hans)
  584. Default: No
  585. Forced: No
  586. Text #21
  587. ID: 35
  588. Format: UTF-8
  589. Codec ID: S_TEXT/UTF8
  590. Codec ID/Info: UTF-8 Plain Text
  591. Duration: 2 h 9 min
  592. Bit rate: 48 b/s
  593. Frame rate: 0.197 FPS
  594. Count of elements: 1536
  595. Stream size: 46.1 KiB (0%)
  596. Title: Chinese (Mandarin Traditional) [Full]
  597. Language: Mandarin (Hant)
  598. Default: No
  599. Forced: No
  600. Text #22
  601. ID: 36
  602. Format: UTF-8
  603. Codec ID: S_TEXT/UTF8
  604. Codec ID/Info: UTF-8 Plain Text
  605. Duration: 2 h 9 min
  606. Bit rate: 45 b/s
  607. Frame rate: 0.196 FPS
  608. Count of elements: 1529
  609. Stream size: 43.1 KiB (0%)
  610. Title: Czech [Full]
  611. Language: Czech
  612. Default: No
  613. Forced: No
  614. Text #23
  615. ID: 37
  616. Format: UTF-8
  617. Codec ID: S_TEXT/UTF8
  618. Codec ID/Info: UTF-8 Plain Text
  619. Duration: 2 h 9 min
  620. Bit rate: 43 b/s
  621. Frame rate: 0.196 FPS
  622. Count of elements: 1529
  623. Stream size: 41.4 KiB (0%)
  624. Title: Danish [Full]
  625. Language: Danish
  626. Default: No
  627. Forced: No
  628. Text #24
  629. ID: 38
  630. Format: UTF-8
  631. Codec ID: S_TEXT/UTF8
  632. Codec ID/Info: UTF-8 Plain Text
  633. Duration: 2 h 9 min
  634. Bit rate: 41 b/s
  635. Frame rate: 0.191 FPS
  636. Count of elements: 1488
  637. Stream size: 39.4 KiB (0%)
  638. Title: Dutch [Full]
  639. Language: Dutch
  640. Default: No
  641. Forced: No
  642. Text #25
  643. ID: 39
  644. Format: UTF-8
  645. Codec ID: S_TEXT/UTF8
  646. Codec ID/Info: UTF-8 Plain Text
  647. Duration: 2 h 9 min
  648. Bit rate: 48 b/s
  649. Frame rate: 0.194 FPS
  650. Count of elements: 1512
  651. Stream size: 46.1 KiB (0%)
  652. Title: Filipino [Full]
  653. Language: Filipino
  654. Default: No
  655. Forced: No
  656. Text #26
  657. ID: 40
  658. Format: UTF-8
  659. Codec ID: S_TEXT/UTF8
  660. Codec ID/Info: UTF-8 Plain Text
  661. Duration: 2 h 9 min
  662. Bit rate: 44 b/s
  663. Frame rate: 0.196 FPS
  664. Count of elements: 1524
  665. Stream size: 41.8 KiB (0%)
  666. Title: Finnish [Full]
  667. Language: Finnish
  668. Default: No
  669. Forced: No
  670. Text #27
  671. ID: 41
  672. Format: UTF-8
  673. Codec ID: S_TEXT/UTF8
  674. Codec ID/Info: UTF-8 Plain Text
  675. Duration: 2 h 9 min
  676. Bit rate: 76 b/s
  677. Frame rate: 0.197 FPS
  678. Count of elements: 1534
  679. Stream size: 72.2 KiB (0%)
  680. Title: Greek [Full]
  681. Language: Greek
  682. Default: No
  683. Forced: No
  684. Text #28
  685. ID: 42
  686. Format: UTF-8
  687. Codec ID: S_TEXT/UTF8
  688. Codec ID/Info: UTF-8 Plain Text
  689. Duration: 2 h 9 min
  690. Bit rate: 74 b/s
  691. Frame rate: 0.197 FPS
  692. Count of elements: 1536
  693. Stream size: 70.6 KiB (0%)
  694. Title: Hebrew [Full]
  695. Language: Hebrew
  696. Default: No
  697. Forced: No
  698. Text #29
  699. ID: 43
  700. Format: UTF-8
  701. Codec ID: S_TEXT/UTF8
  702. Codec ID/Info: UTF-8 Plain Text
  703. Duration: 2 h 9 min
  704. Bit rate: 45 b/s
  705. Frame rate: 0.194 FPS
  706. Count of elements: 1507
  707. Stream size: 43.5 KiB (0%)
  708. Title: Hungarian [Full]
  709. Language: Hungarian
  710. Default: No
  711. Forced: No
  712. Text #30
  713. ID: 44
  714. Format: UTF-8
  715. Codec ID: S_TEXT/UTF8
  716. Codec ID/Info: UTF-8 Plain Text
  717. Duration: 2 h 9 min
  718. Bit rate: 43 b/s
  719. Frame rate: 0.196 FPS
  720. Count of elements: 1529
  721. Stream size: 41.4 KiB (0%)
  722. Title: Indonesian [Full]
  723. Language: Indonesian
  724. Default: No
  725. Forced: No
  726. Text #31
  727. ID: 45
  728. Format: UTF-8
  729. Codec ID: S_TEXT/UTF8
  730. Codec ID/Info: UTF-8 Plain Text
  731. Duration: 2 h 9 min
  732. Bit rate: 49 b/s
  733. Frame rate: 0.197 FPS
  734. Count of elements: 1533
  735. Stream size: 46.8 KiB (0%)
  736. Title: Korean [Full]
  737. Language: Korean
  738. Default: No
  739. Forced: No
  740. Text #32
  741. ID: 46
  742. Format: UTF-8
  743. Codec ID: S_TEXT/UTF8
  744. Codec ID/Info: UTF-8 Plain Text
  745. Duration: 2 h 9 min
  746. Bit rate: 43 b/s
  747. Frame rate: 0.196 FPS
  748. Count of elements: 1528
  749. Stream size: 41.7 KiB (0%)
  750. Title: Malay [Full]
  751. Language: Malay
  752. Default: No
  753. Forced: No
  754. Text #33
  755. ID: 47
  756. Format: UTF-8
  757. Codec ID: S_TEXT/UTF8
  758. Codec ID/Info: UTF-8 Plain Text
  759. Duration: 2 h 9 min
  760. Bit rate: 44 b/s
  761. Frame rate: 0.195 FPS
  762. Count of elements: 1515
  763. Stream size: 42.5 KiB (0%)
  764. Title: Norwegian (Bokmal) [Full]
  765. Language: Norwegian Bokmal
  766. Default: No
  767. Forced: No
  768. Text #34
  769. ID: 48
  770. Format: UTF-8
  771. Codec ID: S_TEXT/UTF8
  772. Codec ID/Info: UTF-8 Plain Text
  773. Duration: 2 h 9 min
  774. Bit rate: 45 b/s
  775. Frame rate: 0.196 FPS
  776. Count of elements: 1522
  777. Stream size: 42.8 KiB (0%)
  778. Title: Romanian [Full]
  779. Language: Romanian
  780. Default: No
  781. Forced: No
  782. Text #35
  783. ID: 49
  784. Format: UTF-8
  785. Codec ID: S_TEXT/UTF8
  786. Codec ID/Info: UTF-8 Plain Text
  787. Duration: 2 h 9 min
  788. Bit rate: 74 b/s
  789. Frame rate: 0.197 FPS
  790. Count of elements: 1533
  791. Stream size: 71.0 KiB (0%)
  792. Title: Russian [Full]
  793. Language: Russian
  794. Default: No
  795. Forced: No
  796. Text #36
  797. ID: 50
  798. Format: UTF-8
  799. Codec ID: S_TEXT/UTF8
  800. Codec ID/Info: UTF-8 Plain Text
  801. Duration: 2 h 9 min
  802. Bit rate: 44 b/s
  803. Frame rate: 0.196 FPS
  804. Count of elements: 1529
  805. Stream size: 42.2 KiB (0%)
  806. Title: Swedish [Full]
  807. Language: Swedish
  808. Default: No
  809. Forced: No
  810. Text #37
  811. ID: 51
  812. Format: UTF-8
  813. Codec ID: S_TEXT/UTF8
  814. Codec ID/Info: UTF-8 Plain Text
  815. Duration: 2 h 9 min
  816. Bit rate: 115 b/s
  817. Frame rate: 0.197 FPS
  818. Count of elements: 1535
  819. Stream size: 110 KiB (0%)
  820. Title: Tamil [Full]
  821. Language: Tamil
  822. Default: No
  823. Forced: No
  824. Text #38
  825. ID: 52
  826. Format: UTF-8
  827. Codec ID: S_TEXT/UTF8
  828. Codec ID/Info: UTF-8 Plain Text
  829. Duration: 2 h 9 min
  830. Bit rate: 114 b/s
  831. Frame rate: 0.197 FPS
  832. Count of elements: 1536
  833. Stream size: 109 KiB (0%)
  834. Title: Telugu [Full]
  835. Language: Telugu
  836. Default: No
  837. Forced: No
  838. Text #39
  839. ID: 53
  840. Format: UTF-8
  841. Codec ID: S_TEXT/UTF8
  842. Codec ID/Info: UTF-8 Plain Text
  843. Duration: 2 h 9 min
  844. Bit rate: 116 b/s
  845. Frame rate: 0.197 FPS
  846. Count of elements: 1536
  847. Stream size: 111 KiB (0%)
  848. Title: Thai [Full]
  849. Language: Thai
  850. Default: No
  851. Forced: No
  852. Text #40
  853. ID: 54
  854. Format: UTF-8
  855. Codec ID: S_TEXT/UTF8
  856. Codec ID/Info: UTF-8 Plain Text
  857. Duration: 2 h 9 min
  858. Bit rate: 72 b/s
  859. Frame rate: 0.197 FPS
  860. Count of elements: 1536
  861. Stream size: 69.0 KiB (0%)
  862. Title: Ukrainian [Full]
  863. Language: Ukrainian
  864. Default: No
  865. Forced: No
  866. Text #41
  867. ID: 55
  868. Format: UTF-8
  869. Codec ID: S_TEXT/UTF8
  870. Codec ID/Info: UTF-8 Plain Text
  871. Duration: 2 h 9 min
  872. Bit rate: 58 b/s
  873. Frame rate: 0.196 FPS
  874. Count of elements: 1529
  875. Stream size: 55.5 KiB (0%)
  876. Title: Vietnamese [Full]
  877. Language: Vietnamese
  878. Default: No
  879. Forced: No
复制代码










回复

使用道具 举报

懒得打字嘛,点击右侧快捷回复 【右侧内容,后台自定义】
您需要登录后才可以回帖 登录 | 立即加入

本版积分规则

Archiver| |网站地图

Copyright © 2024 Comsenz Inc. Powered by 蓝光电影网

本站内容由用户自主分享和转载自互联网,转载目的在于传递更多信息,并不代表本网赞同其观点和对其真实性负责。

如有侵权、违反国家法律政策行为,请联系我们,我们会第一时间及时清除和处理!

举报反馈邮箱:4k1080.com@gmail.com

快速回复 返回顶部 返回列表