找回密码

查看: 1200|回复: 3

[2160p] 惊奇队长2.THE.MARVELS.2023.4K.UHD.COMPLETE.BLURAY-MassModz 48.45GB

[复制链接]
蓝光币
2048
发表于 2024-2-22 16:00:05 | 显示全部楼层 |阅读模式


◎译  名 惊奇队长2 / Marvel队长2(港) / 惊奇同盟 / 漫威队长2 / 惊奇密斯2
◎片  名 The Marvels
◎年  代 2023
◎产  地 美国
◎类  别 行动 / 奇异 / 冒险
◎语  言 英语 / 乌尔都语 / 阿拉伯语
◎上映日期 2023-11-08(中国香港) / 2023-11-10(美国/中国大陆)
◎IMDb评星  ★★★★★✦☆☆☆☆
◎IMDb评分  5.6/10 from 107,200 users
◎IMDb链接  https://www.imdb.com/title/tt10676048/
◎豆瓣评星 ★★✦☆☆
◎豆瓣评分 5.0/10 from 62,383 users
◎豆瓣链接 https://movie.douban.com/subject/34678231/
◎片  长 105分钟
◎导  演 尼娅·达科斯塔 / Nia DaCosta
◎演  员 布丽·拉尔森 / Brie Larson | 饰 惊奇队长 / 卡罗尔·丹弗斯 Captain Marvel / Carol Danvers
      泰柔娜·派丽丝 / Teyonah Parris | 饰 莫妮卡·兰博 Monica Rambeau
      伊曼·韦拉尼 / Iman Vellani | 饰 惊奇少女 / 卡玛拉·克汗 Kamala Khan / Ms. Marvel
      塞缪尔·杰克逊 / Samuel L. Jackson | 饰 尼克·弗瑞 Nick Fury
      扎威·阿什顿 / Zawe Ashton | 饰 达尔·本 Dar-Benn
      加里·刘易斯 / Gary Lewis | 饰 德罗杰 Emperor Dro'ge
      朴叙俊 / Seo-Joon Park | 饰 扬王子 Yan
      泽诺比娅·谢罗夫 / Zenobia Shroff | 饰 穆妮芭·克汗 Muneeba Khan
      莫汉·卡普尔 / Mohan Kapur | 饰 尤瑟夫·克汗 Yusuf Khan
      萨加尔·谢赫 / Saagar Shaikh | 饰 阿米尔·克汗 Aamir Khan
      蕾拉·法扎德 / Leila Farzad | 饰 Talia
      亚伯拉罕·波波拉 / Abraham Popoola | 饰 Dag
      泰莎·汤普森 / Tessa Thompson | 饰 女武神 Valkyrie
      海莉·斯坦菲尔德 / Hailee Steinfeld | 饰 凯特·毕肖普 Kate Bishop
      拉什纳·林奇 / Lashana Lynch | 饰 玛利亚·兰博 Maria Rambeau
      凯尔希·格兰莫 / Kelsey Grammer | 饰 野兽 Dr. Henry 'Hank' McCoy / Beast
      丹尼尔·英格斯 / Daniel Ings | 饰 Ty-Rone
      亚历克斯·休赫斯 / Alex Hughes | 饰 Kree Announcer
      莎迪娅·萨加拉 / Shardiah Ssagala | 饰 Skrull Young Adult
      塞西莉·克利夫 / Cecily Cleeve | 饰 Skrull Young Girl
      雷米·达比利-麦克奎德 / Remi Dabiri-McQuaid | 饰 Skrull Child
      菲恩·乔利 / Ffion Jolly | 饰 Skrull Woman
      肯尼迪·麦克卡勒姆-马丁 / Kenedy McCallam-Martin | 饰 Little Monica
      萨凡娜·斯基纳-亨利 / Savannah Skinner-Henry | 饰 Aladnean Child
      卡罗琳·西蒙内特 / Caroline Simonnet | 饰 Kree Soldier
      艾米莉·吴 / Emily Ng | 饰 Space Worker
      乔纳森·科普 / Jonathan Cope | 饰 Alien
      科林·斯通利 / Colin Stoneley | 饰 Kree Scientist
      市村光 / Kei Ichimura | 饰 Courtier
      维诺德·达瓦勒 / Vinod Dhawale | 饰 Space Worker
      卡玛拉·本杰明·巴内特 / Kamara Benjamin Barnett | 饰 Kree Soldier
      肯尼-李·姆巴内福 / Kenny-Lee Mbanefo | 饰 Kree Soldier
      托尼·麦克卡锡 / Tony McCarthy | 饰 Palace courtier
      迈克尔·奥拉德勒 / Michael Oladele | 饰 Aladnean Soldier / Kree Soldier
◎编  剧 尼娅·达科斯塔 / Nia DaCosta
      梅根·麦克唐纳 / Megan McDonnell
      艾丽莎·卡拉西克 / Elissa Karasik
      扎布·威尔斯 / Zeb Wells
      吉因·科兰 / Gene Colan
      罗伊·托马斯 / Roy Thomas
◎制  片  人 凯文·费奇 / Kevin Feige
      路易斯·德·埃斯波西托 / Louis D'Esposito
      维多利亚·阿隆索 / Victoria Alonso
◎音  乐 劳拉·卡普曼 / Laura Karpman
◎服  装 林赛·珀 / Lindsay Pugh
◎副  导  演 罗布·英奇 / Rob Inch
◎行动特技 杨亮 / Liang Yang
      乔安娜·贝内特 / Joanna Bennett
      伊恩·佩德 / Ian Pead
      卡罗琳·西蒙内特 / Caroline Simonnet
◎简  介 
  “惊奇队长”卡罗尔·丹弗斯(布丽·拉尔森 Brie Larson 饰)已经冒失的正义之举,在宇宙中埋下庞大祸根。因本星球至高聪明被卡罗尔扑灭,致使全部星球生态系统解体,克里人达本满心冤仇,在找到了具有强大气力的太古手环后,她起头实施从其他星球掠取大气、水和太阳的计划。与此同时,卡罗尔和她的侄女——现在供职天剑局的光谱莫妮卡·兰博(泰柔娜·派丽丝 Teyonah Parris 饰)以及自己的超级粉丝“惊奇少女”卡玛拉·克汗(伊曼·韦拉尼 Iman Vellani 饰)发生了量子纠缠,三个女子只要同时发挥超才能就会相互交换位置。
  经过最初的磨合,三代“惊奇队长”站在了同一条阵线上,她们将拼尽尽力庇护自己所重视的人和事,同时也将尽力填补自己已经犯下的毛病……
  1. General
  2. Format: BDAV
  3. Format/Info: Blu-ray Video
  4. File size: 47.4 GiB
  5. Duration: 1h 44m
  6. Overall bit rate mode: Variable
  7. Overall bit rate: 64.8 Mb/s
  8. Maximum Overall bit rate: 128 Mb/s
  9. Frame rate: 23.976 FPS
  10. Video #1
  11. ID: 4113 (0x1011)
  12. Menu ID: 1 (0x1)
  13. Format: HEVC
  14. Format/Info: High Efficiency Video Coding
  15. Format profile: Main 10@L5.1@High
  16. HDR format: SMPTE ST 2086, HDR10 compatible
  17. Codec ID: 36
  18. Duration: 1h 44m
  19. Bit rate: 58.3 Mb/s
  20. Width: 3840 pixels
  21. Height: 2160 pixels
  22. Display aspect ratio: 16:9
  23. Frame rate: 23.976 (24000/1001) FPS
  24. Color space: YUV
  25. Chroma subsampling: 4:2:0 (Type 2)
  26. Bit depth: 10 bits
  27. Bits/(Pixel*Frame): 0.293
  28. Stream size: 42.7 GiB (90%)
  29. Color range: Limited
  30. Color primaries: BT.2020
  31. Transfer characteristics: PQ
  32. Matrix coefficients: BT.2020 non-constant
  33. Mastering display color primaries: BT.2020
  34. Mastering display luminance: min: 0.0050 cd/m2, max: 1000 cd/m2
  35. Audio #1
  36. ID: 4352 (0x1100)
  37. Menu ID: 1 (0x1)
  38. Format: MLP FBA AC-3 16-ch
  39. Format/Info: Meridian Lossless Packing FBA with 16-channel presentation
  40. Commercial name: Dolby TrueHD with Dolby Atmos
  41. Muxing mode: Stream extension
  42. Codec ID: 131
  43. Duration: 1h 44m
  44. Bit rate mode: Variable
  45. Bit rate: 640 kb/s
  46. Maximum bit rate: 8028 kb/s
  47. Channel(s): 8 channels
  48. Channel layout: L R C LFE Ls Rs Lb Rb
  49. Sampling rate: 48.0 kHz
  50. Frame rate: 31.250 FPS (1536 SPF)
  51. Compression mode: Lossless
  52. Stream size: 480 MiB (1%)
  53. Service kind: Complete Main
  54. Number of dynamic objects: 13
  55. Bed channel count: 1 channel
  56. Bed channel configuration: LFE
复制代码









回复

使用道具 举报

蓝光币
462
发表于 2024-2-23 09:47:30 | 显示全部楼层

我看不错噢 谢谢楼主!蓝光电影网越来越好!
回复

使用道具 举报

蓝光币
235
发表于 2024-2-24 21:23:27 | 显示全部楼层
光电影网越来越好!
回复

使用道具 举报

蓝光币
3
发表于 2024-2-26 19:44:32 | 显示全部楼层

楼主太厉害了!楼主,电影应该很好看我觉得蓝光电影网真是个好地方!
回复

使用道具 举报

懒得打字嘛,点击右侧快捷回复 【右侧内容,后台自定义】
您需要登录后才可以回帖 登录 | 立即加入

本版积分规则

Archiver| |网站地图

Copyright © 2024 Comsenz Inc. Powered by 蓝光电影网

本站内容由用户自主分享和转载自互联网,转载目的在于传递更多信息,并不代表本网赞同其观点和对其真实性负责。

如有侵权、违反国家法律政策行为,请联系我们,我们会第一时间及时清除和处理!

举报反馈邮箱:4k1080.com@gmail.com

快速回复 返回顶部 返回列表