找回密码

查看: 609|回复: 0

[剧情] 印度艳后.Padmaavat.2018.IND.1080p.BluRay.REMUX.AVC.TrueHD.7.1-Asmo 42.84GB

[复制链接]
蓝光币
2048
发表于 2024-2-22 16:00:06 | 显示全部楼层 |阅读模式


◎译  名 印度艳后 / 帕德玛瓦蒂:爱无所惧(台) / 帕德玛瓦蒂王后 / 帕德玛瓦蒂 / Rani Padmavati
◎片  名 Padmaavat
◎年  代 2018
◎产  地 印度
◎类  别 剧情 / 恋爱 / 历史
◎语  言 印地语
◎上映日期 2018-01-25(印度)
◎IMDb评星  ★★★★★★★☆☆☆
◎IMDb评分  7.1/10 from 36,580 users
◎IMDb链接  https://www.imdb.com/title/tt5935704/
◎豆瓣评星 ★★★✦☆
◎豆瓣评分 6.8/10 from 2,872 users
◎豆瓣链接 https://movie.douban.com/subject/27156513/
◎片  长 164分钟
◎导  演 桑杰·里拉·彭萨里 / Sanjay Leela Bhansali
◎演  员 迪皮卡·帕度柯妮 / Deepika Padukone | 饰 帕德玛瓦蒂 Padmavati
      阿努普瑞雅·戈恩卡 / Anupriya Goenka | 饰 娜格玛蒂 Nagmati
      兰维尔·辛格 / Ranveer Singh | 饰 苏丹 Sultan Alauddin Khilji
      沙希德·卡普尔 / Shahid Kapur | 饰 玛拉哈瓦 Maharawal Ratan Singh
      阿娣提·拉奥·希达里 / Aditi Rao Hydari | 饰 梅茹妮莎 Mehrunissa
      吉姆·萨伯 / Jim Sarbh | 饰 马利克·卡富尔 Malik Kafur
      拉萨·默拉德 / Raza Murad | 饰 贾拉勒丁·希尔基 Jalaluddin Khilji
      夏恩·辛格 / Sharhaan Singh | 饰 维贾丹·辛格 Vijaydaan Singh
      曼吉特·辛格 / Manjit Singh | 饰 法鲁克·阿凡提 Farouk Affandi
      帕德曼瓦蒂·拉奥 / Padmavati Rao | 饰 孔瓦尔·拜萨 Kunwar Baisa
◎编  剧 普拉卡什·卡帕迪亚 / Prakash Kapadia
      桑杰·里拉·彭萨里 / Sanjay Leela Bhansali
◎视觉殊效 瑞恩·艾伦 / Ryan Allen
◎简  介 
  《帕德玛瓦蒂王后》改编自16世纪一首苏菲史诗《Padmavati》,原是报告印度战役民族拉杰普特人王后的史诗,首要描写她为民族和群众匹敌外来仇敌的故事,其中皇后为了庇护自己清誉而自焚。
  按照16世纪的同名史诗改编,报告了斯里兰卡公主、拉杰普特人的王后帕德玛瓦蒂的倾城美貌致使德里苏丹出兵攻打她的良人,欲将她夺为己有。苏丹虽然克服,却没能获得帕德玛瓦蒂
  1. Padmaavat.2018.IND.1080p.BluRay.REMUX.AVC.TrueHD.7.1-Asmo
  2. Stream #0:0(hin): Video: h264 (High), yuv420p(progressive), 1920x1080 [SAR 1:1 DAR 16:9], 24 fps, 24 tbr, 1k tbn (default)
  3. Stream #0:1(hin): Audio: truehd, 96000 Hz, 7.1, s32 (24 bit) (default)
  4. Stream #0:2(hin): Audio: ac3, 48000 Hz, 5.1(side), fltp, 640 kb/s
  5. Stream #0:3(eng): Subtitle: subrip
  6. Stream #0:4(eng): Subtitle: hdmv_pgs_subtitle
  7. Stream #0:5(fre): Subtitle: subrip
  8. Stream #0:6(spa): Subtitle: subrip
  9. Stream #0:7(ita): Subtitle: subrip
  10. Stream #0:8(por): Subtitle: subrip
  11. Stream #0:9(por): Subtitle: subrip
  12. Stream #0:10(ara): Subtitle: subrip
  13. Stream #0:11(ben): Subtitle: subrip
  14. Stream #0:12(bul): Subtitle: subrip
  15. Stream #0:13(bos): Subtitle: subrip
  16. Stream #0:14(hun): Subtitle: subrip
  17. Stream #0:15(vie): Subtitle: ass
  18. Stream #0:16(dut): Subtitle: subrip
  19. Stream #0:17(gre): Subtitle: subrip
  20. Stream #0:18(ind): Subtitle: subrip
  21. Stream #0:19(chi): Subtitle: subrip
  22. Stream #0:20(chi): Subtitle: subrip
  23. Stream #0:21(may): Subtitle: subrip
  24. Stream #0:22(mal): Subtitle: subrip
  25. Stream #0:23(pol): Subtitle: subrip
  26. Stream #0:24(rum): Subtitle: subrip
  27. Stream #0:25(rus): Subtitle: subrip
  28. Stream #0:26(rus): Subtitle: subrip
  29. Stream #0:27(srp): Subtitle: subrip
  30. Stream #0:28(sin): Subtitle: subrip
  31. Stream #0:29(tha): Subtitle: subrip
  32. Stream #0:30(tur): Subtitle: subrip
  33. Stream #0:31(per): Subtitle: subrip
  34. Stream #0:32(hin): Subtitle: subrip
  35. Stream #0:33(hrv): Subtitle: subrip
  36. Stream #0:34(cze): Subtitle: subrip
  37. Stream #0:35(jpn): Subtitle: subrip
复制代码









回复

使用道具 举报

懒得打字嘛,点击右侧快捷回复 【右侧内容,后台自定义】
您需要登录后才可以回帖 登录 | 立即加入

本版积分规则

Archiver| |网站地图

Copyright © 2024 Comsenz Inc. Powered by 蓝光电影网

本站内容由用户自主分享和转载自互联网,转载目的在于传递更多信息,并不代表本网赞同其观点和对其真实性负责。

如有侵权、违反国家法律政策行为,请联系我们,我们会第一时间及时清除和处理!

举报反馈邮箱:4k1080.com@gmail.com

快速回复 返回顶部 返回列表