找回密码

查看: 518|回复: 0

[剧情] 驴子.Dunki.2023.Hindi.1080p.NF.WEB-DL.AAC5.1.H.264-TheBiscuitMan 3.19GB

[复制链接]
蓝光币
2048
发表于 2024-2-22 16:02:03 | 显示全部楼层 |阅读模式


◎译  名 驴子 / 人在驴途
◎片  名 Dunki
◎年  代 2023
◎产  地 印度
◎类  别 剧情 / 笑剧
◎语  言 印地语
◎上映日期 2023-12-21(印度)
◎IMDb评星  ★★★★★★★☆☆☆
◎IMDb评分  6.9/10 from 66,467 users
◎IMDb链接  https://www.imdb.com/title/tt15428134/
◎豆瓣链接 https://movie.douban.com/subject/35882844/
◎片  长 160分钟
◎导  演 拉吉库马尔·希拉尼 / Rajkumar Hirani
◎演  员 沙鲁克·汗 / Shah Rukh Khan
      塔丝·潘努 / Taapsee Pannu
      博曼·伊拉尼 / Boman Irani
◎编  剧 拉吉库马尔·希拉尼 / Rajkumar Hirani
      阿希贾特·乔希 / Abhijat Joshi
◎简  介 
  来自旁遮普一个村落的四个朋友有一个配合的胡想:去英国。题目是他们既没有签证,也没有机票,而一位流兵答应带他们去胡想之地。
  谈到《驴子》,演员沙鲁克·汗暗示这部电影的英文名为“Donkey”。但它的题目是“Dunki”,由于在印度,有些人将“Donkey”发音为“Dunki”。 他进一步暗示,《驴子》是“一个关于人们想要回家的故事……当你终极接到呼唤时”。
  该片展现了印度人疯狂地操纵名为“驴子航班”的不法后门线路移民到加拿大和美国等国家的负面现象,但沙鲁克·汗也廓清说:“这是一部笑剧电影,他(指导演 Rajkumar Hirani)的电影总是笑剧和很多夹杂情感,以及关于国家的工作。所以,这是一部大型公路片,它穿越了天下各地,最初回到了印度”。
  1. General
  2. Unique ID : 9129605853909330094360560744679654333 (0x6DE4C52362C6D4D1BF4BC07A88CC3BD)
  3. Complete name : Dunki.2023.Hindi.1080p.NF.WEB-DL.AAC5.1.H.264-TheBiscuitMan.mkv
  4. Format : Matroska
  5. Format version : Version 4
  6. File size : 3.19 GiB
  7. Duration : 2 h 40 min
  8. Overall bit rate : 2 850 kb/s
  9. Frame rate : 24.000 FPS
  10. Writing application : mkvmerge v82.0 ('I'm The President') 64-bit
  11. Writing library : libebml v1.4.5 + libmatroska v1.7.1
  12. Video
  13. ID : 1
  14. Format : AVC
  15. Format/Info : Advanced Video Codec
  16. Format profile : Main@L4
  17. Format settings : CABAC / 4 Ref Frames
  18. Format settings, CABAC : Yes
  19. Format settings, Reference frames : 4 frames
  20. Codec ID : V_MPEG4/ISO/AVC
  21. Duration : 2 h 40 min
  22. Bit rate mode : Constant
  23. Bit rate : 2 713 kb/s
  24. Width : 1 920 pixels
  25. Height : 1 080 pixels
  26. Display aspect ratio : 16:9
  27. Frame rate mode : Constant
  28. Frame rate : 24.000 FPS
  29. Color space : YUV
  30. Chroma subsampling : 4:2:0
  31. Bit depth : 8 bits
  32. Scan type : Progressive
  33. Bits/(Pixel*Frame) : 0.055
  34. Stream size : 2.97 GiB (93%)
  35. Default : Yes
  36. Forced : No
  37. Color range : Limited
  38. Color primaries : BT.709
  39. Transfer characteristics : BT.709
  40. Matrix coefficients : BT.709
  41. Audio
  42. ID : 2
  43. Format : AAC LC SBR
  44. Format/Info : Advanced Audio Codec Low Complexity with Spectral Band Replication
  45. Commercial name : HE-AAC
  46. Format settings : Explicit
  47. Codec ID : A_AAC-2
  48. Duration : 2 h 40 min
  49. Bit rate : 192 kb/s
  50. Channel(s) : 6 channels
  51. Channel layout : C L R Ls Rs LFE
  52. Sampling rate : 48.0 kHz
  53. Frame rate : 23.438 FPS (2048 SPF)
  54. Compression mode : Lossy
  55. Stream size : 220 MiB (7%)
  56. Language : Hindi
  57. Default : Yes
  58. Forced : No
  59. Text
  60. ID : 3
  61. Format : UTF-8
  62. Codec ID : S_TEXT/UTF8
  63. Codec ID/Info : UTF-8 Plain Text
  64. Duration : 2 h 32 min
  65. Bit rate : 57 b/s
  66. Frame rate : 0.250 FPS
  67. Count of elements : 2288
  68. Stream size : 64.2 KiB (0%)
  69. Language : English
  70. Default : Yes
  71. Forced : No
复制代码









回复

使用道具 举报

懒得打字嘛,点击右侧快捷回复 【右侧内容,后台自定义】
您需要登录后才可以回帖 登录 | 立即加入

本版积分规则

Archiver| |网站地图

Copyright © 2024 Comsenz Inc. Powered by 蓝光电影网

本站内容由用户自主分享和转载自互联网,转载目的在于传递更多信息,并不代表本网赞同其观点和对其真实性负责。

如有侵权、违反国家法律政策行为,请联系我们,我们会第一时间及时清除和处理!

举报反馈邮箱:4k1080.com@gmail.com

快速回复 返回顶部 返回列表