找回密码

查看: 293|回复: 0

[恐怖] 蜈蚣咒.Centipede.Horror.1983.CHN.1080p.BluRay.REMUX.AVC.DTS-HD.MA.2.0.DDP5.1.CUSTOM-Asmo 20.99GB

[复制链接]
蓝光币
1917
发表于 2024-2-24 11:47:33 | 显示全部楼层 |阅读模式


◎译  名 Centipede Horror / 蜈蚣王 / Centipede Curse
◎片  名 蜈蚣咒
◎年  代 1982
◎产  地 中国香港
◎类  别 可骇
◎语  言 粤语
◎上映日期 1982-10-29(中国香港)
◎IMDb评星  ★★★★★✦☆☆☆☆
◎IMDb评分  5.4/10 from 469 users
◎IMDb链接  https://www.imdb.com/title/tt0096467/
◎豆瓣评星 ★★★☆☆
◎豆瓣评分 6.4/10 from 1,125 users
◎豆瓣链接 https://movie.douban.com/subject/2355307/
◎片  长 94分钟
◎导  演 李百龄 / Keith Li
◎演  员 苗侨伟 / Kiu Wai Miu
      李殿朗 / Margaret Lee Din-Long
      胡仙哈辛 / Hussin Bin Abu Hassan
      王莱 / Lai Wang
      叶天行 / Stephan Yip Tin-Hang
      陈曙光 / Stephen Chan Chue-Kwong | 饰 陳曙光
      陈雪明 / Amy Chan Suet-Ming
      张作舟 / Chok Chow Cheung
◎编  剧 陈雪明 / Amy Chan Suet-Ming
◎摄  影 李业 / Yip Lee
◎副  导  演 陆剑明 / Jamie Luk
      叶天行 / Stephan Yip Tin-Hang
◎简  介 
  亚伟(苗侨伟)及妹妹自小被母亲警告:不得去南洋!两人虽不知起因,却也老实服从。母亲外出时代,妹妹欲与朋友结伴去南洋观光,亚伟经不住她的几番恳求,准她违背母命,但丁宁一定要戴祖传灵牌,不想她在南洋时嫌灵牌太丑丢于行李箱,成果被蜈蚣群袭,死相惨绝人寰。
  亚伟赶到南洋为妹妹打点丧事,大学同学亚芝(李殿朗)相陪,进程中他被高人相告已被降王盯上,谨慎行事之时向母亲诘问南洋是一家人禁地的缘由。本来亚伟爷爷年轻时曾在南洋出错,降王誓要报仇,是谓“祖先作孽、先人受灾”。亚伟无恙是因时辰将祖传灵牌戴于脖间。降王屡攻不下,决议下降亚芝。
  1. Centipede.Horror.1983.CHN.1080p.BluRay.REMUX.AVC.DTS-HD.MA.2.0.DDP5.1.CUSTOM-Asmo
  2. Stream #0:0(chi): Video: h264 (High), yuv420p(tv, bt709, progressive), 1920x1080 [SAR 1:1 DAR 16:9], 24 fps, 24 tbr, 1k tbn, 48 tbc (default)
  3. Stream #0:1(chi): Audio: dts (DTS-HD MA), 48000 Hz, stereo, s16p (default)
  4. Stream #0:2(chi): Audio: eac3, 48000 Hz, 5.1(side), fltp, 640 kb/s (Custom)
  5. Stream #0:3(pol): Subtitle: hdmv_pgs_subtitle
  6. Stream #0:4(eng): Subtitle: hdmv_pgs_subtitle
  7. Stream #0:5(chi): Subtitle: hdmv_pgs_subtitle
  8. Stream #0:6(chi): Subtitle: hdmv_pgs_subtitle
复制代码









回复

使用道具 举报

懒得打字嘛,点击右侧快捷回复 【右侧内容,后台自定义】
您需要登录后才可以回帖 登录 | 立即加入

本版积分规则

Archiver| |网站地图

Copyright © 2024 Comsenz Inc. Powered by 蓝光电影网

本站内容由用户自主分享和转载自互联网,转载目的在于传递更多信息,并不代表本网赞同其观点和对其真实性负责。

如有侵权、违反国家法律政策行为,请联系我们,我们会第一时间及时清除和处理!

举报反馈邮箱:4k1080.com@gmail.com

快速回复 返回顶部 返回列表