找回密码

查看: 464|回复: 2

[2160p] 黑色党徒.BlacKkKlansman.2018.2160p.BluRay.REMUX.DoVi.HEVC.DTS-HD.MA.TrueHD.7.1.Atmos-PB69 82.99GB

[复制链接]
蓝光币
1917
发表于 2024-2-24 11:49:38 | 显示全部楼层 |阅读模式


◎译  名 黑色党徒 / 卧底天王(港) / Black Klansman
◎片  名 BlacKkKlansman
◎年  代 2018
◎产  地 美国
◎类  别 笑剧 / 列传 / 犯罪
◎语  言 英语
◎上映日期 2018-05-14(戛纳电影节) / 2018-08-10(美国)
◎IMDb评星  ★★★★★★★✦☆☆
◎IMDb评分  7.5/10 from 288,753 users
◎IMDb链接  https://www.imdb.com/title/tt7349662/
◎豆瓣评星 ★★★✦☆
◎豆瓣评分 7.2/10 from 31,647 users
◎豆瓣链接 https://movie.douban.com/subject/27133913/
◎片  长 135分钟
◎导  演 斯派克·李 / Spike Lee
◎演  员 约翰·大卫·华盛顿 / John David Washington | 饰 Ron Stallworth
      亚历克·鲍德温 / Alec Baldwin | 饰 Dr. Kennebrew Beauregard
      小伊塞亚·维特洛克 / Isiah Whitlock Jr. | 饰 Mr. Turrentine
      罗伯特·约翰·伯克 / Robert John Burke | 饰 Chief Bridges
      布赖恩·塔伦蒂诺 / Brian Tarantina | 饰 Officer Clay Mulaney
      阿瑟·J·纳斯加勒拉 / Arthur J. Nascarella | 饰 Officer Wheaton
      根·加里托 / Ken Garito | 饰 Sergeant Trapp
      弗雷德里克·韦勒 / Frederick Weller | 饰 Master Patrolman Andy Landers
      亚当·德赖弗 / Adam Driver | 饰 Flip Zimmerman
      迈克尔·布谢米 / Michael Buscemi | 饰 Jimmy
      劳拉·哈里尔 / Laura Harrier | 饰 Patrice
      达马里斯·刘易斯 / Damaris Lewis | 饰 Odetta
      奥托·布兰克森-伍德 / Ato Blankson-Wood | 饰 Hakeem
      科里·霍金斯 / Corey Hawkins | 饰 Kwame Ture
      法龙·索尔兹伯里 / Faron Salisbury | 饰 P.O. Sparks
      瑞安·艾戈尔德 / Ryan Eggold | 饰 Walter Breachway
      加斯帕·帕科农 / Jasper Pääkkönen | 饰 Felix Kendrickson
      保罗·沃尔特·豪泽 / Paul Walter Hauser | 饰 Ivanhoe
      阿什莉·阿特金森 / Ashlie Atkinson | 饰 Connie Kendrickson
      托弗·戈瑞斯 / Topher Grace | 饰 David Duke
      维克托·科利采奇妙 / Victor Colicchio | 饰 Steve
      埃莉斯·哈德森 / Elise Hudson | 饰 Librarian
      丹尼·霍奇 / Danny Hoch | 饰 Agent Y
      尼古拉斯·特图罗 / Nicholas Turturro | 饰 Walker
      哈里·贝拉方特 / Harry Belafonte | 饰 Jerome Turner
      克里斯·班克斯 / Chris Banks | 饰 Klansman
      克雷格·穆姆斯·格兰特 / Craig muMs Grant | 饰 Jabbo
      汤姆·斯特拉特福 / Tom Stratford | 饰 Hotel Clerk
      唐纳德·特朗普 / Donald Trump
      保罗·迪奥梅德 / Paul Diomede | 饰 Jerry
      赖恩·普雷姆斯伯格 / Ryan Preimesberger | 饰 Jesse Nayyar
      吉娜·贝拉方特 / Gina Belafonte | 饰 Gina B.
      迈克尔·J·伯格 / Michael J. Burg | 饰 CSPD Officer Myers
      柯特·克伦德尼 / Curt Clendenin | 饰 Klansman
      大卫·杜克 / David Duke
      贾里德·约翰斯顿 / Jared Johnston | 饰 CSPD Officer Brickhouse
◎编  剧 斯派克·李 / Spike Lee
      查利·瓦赫特尔 / Charlie Wachtel
      大卫·拉比诺维茨 / David Rabinowitz
      凯文·威尔默特 / Kevin Willmott
      罗恩·施塔沃思 / Ron Stallworth
◎制  片  人 斯派克·李 / Spike Lee
      乔丹·皮尔 / Jordan Peele
      温·罗森菲尔德 / Win Rosenfeld
      马修·A·切瑞 / Matthew A. Cherry
      杰森·布伦 / Jason Blum
◎音  乐 泰伦斯·布兰查德 / Terence Blanchard
◎摄  影 蔡斯·欧文 / Chayse Irvin
◎剪  辑 巴里·亚历山大·布朗 / Barry Alexander Brown
◎服  装 马奇·罗杰斯 / Marci Rodgers
◎简  介 
  《黑色党徒》按照2014年罗恩·斯塔尔沃斯所著的自传改编,报告了一位科罗拉多州的黑人差人,成功潜入当地的3K党构造做卧底的故事。
◎获奖情况 
  第91届奥斯卡金像奖 (2019)
  最好影片(提名) 乔丹·皮尔,杰森·布伦,斯派克·李,雷蒙德·曼斯菲尔德,肖恩·麦基特里克
  最好导演(提名) 斯派克·李
  最好男配角(提名) 亚当·德赖弗
  最好改编剧本 查利·瓦赫特尔,斯派克·李,凯文·威尔默特,大卫·拉比诺维茨
  最好剪辑(提名) 巴里·亚历山大·布朗
  最好原创配乐(提名) 泰伦斯·布兰查德
  第71届戛纳电影节 (2018)
  主比赛单元 金棕榈奖(提名) 斯派克·李
  主比赛单元 评审团大奖 斯派克·李
  第76届金球奖 (2019)
  电影类 最好剧情片(提名)
  电影类 最好导演(提名) 斯派克·李
  电影类 剧情片最好男配角(提名) 约翰·大卫·华盛顿
  电影类 最好男配角(提名) 亚当·德赖弗
  第72届英国电影学院奖 (2019)
  电影奖 最好影片(提名)
  电影奖 最好导演(提名) 斯派克·李
  电影奖 最好男配角(提名) 亚当·德赖弗
  电影奖 最好改编剧本 查利·瓦赫特尔,斯派克·李,凯文·威尔默特,大卫·拉比诺维茨
  电影奖 最好原创音乐(提名) 泰伦斯·布兰查德
  第71届洛迦诺国际电影节 (2018)
  观众挑选奖 斯派克·李
  Variety Piazza Grande Award(提名) 斯派克·李
  第28届MTV电影奖 (2019)
  MTV电影奖 年度电影(提名)
  MTV电影奖 最好豪杰形象(提名) 约翰·大卫·华盛顿
  第71届美国导演工会奖 (2019)
  最好电影导演(提名) 斯派克·李
  第25届美国演员工会奖 (2019)
  电影奖 最好男配角(提名) 约翰·大卫·华盛顿
  电影奖 最好男配角(提名) 亚当·德赖弗
  电影奖 最好群戏(提名)
  第71届美国编剧工会奖 (2019)
  电影奖 最好改编剧本(提名) 查利·瓦赫特尔,斯派克·李,凯文·威尔默特,大卫·拉比诺维茨
  第30届美国制片野生会奖 (2019)
  最好电影制片人奖(提名)
  第69届美国剪辑工会奖 (2019)
  剧情片最好剪辑(提名) 巴里·亚历山大·布朗
  第21届美国打扮设想工会奖 (2019)
  年月电影最好打扮设想(提名) 马奇·罗杰斯
  第6届美国化装及发型设想工会奖 (2019)
  电影类最好年月戏发型设想(提名)
  第24届美国批评家挑选电影奖 (2019)
  最好影片(提名)
  最好导演(提名) 斯派克·李
  最好男配角(提名) 亚当·德赖弗
  最好改编剧本(提名) 查利·瓦赫特尔,斯派克·李,凯文·威尔默特,大卫·拉比诺维茨
  第34届美国自力精神奖 (2019)
  最好男配角(提名) 亚当·德赖弗
  第28届哥谭自力电影奖 (2018)
  最好男演员(提名) 亚当·德赖弗
  第19届美国电影学会奖 (2018)
  年度佳片
  第23届金卫星奖 (2019)
  电影部分 最好导演(提名) 斯派克·李
  电影部分 笑剧/音乐片最好男配角(提名) 约翰·大卫·华盛顿
  电影部分 最好男配角(提名) 亚当·德赖弗
  电影部分 最好自力片
  电影部分 最好改编剧本(提名) 查利·瓦赫特尔,斯派克·李,凯文·威尔默特,大卫·拉比诺维茨
  电影部分 最好原创配乐(提名)
  电影部分 最好剪辑(提名)
  第22届好莱坞电影奖 (2018)
  年度冲破男演员 约翰·大卫·华盛顿
  第17届华盛顿影评人协会奖 (2018)
  最好改编剧本(提名) 查利·瓦赫特尔,斯派克·李,凯文·威尔默特,大卫·拉比诺维茨
  第39届伦敦影评人协会奖 (2019)
  年度电影(提名)
  年度男配角(提名) 亚当·德赖弗
  技术成就奖(提名) 马奇·罗杰斯
  第31届芝加哥影评人协会奖 (2018)
  最好改编剧本(提名) 查利·瓦赫特尔,斯派克·李,凯文·威尔默特,大卫·拉比诺维茨
  最具潜力演员(提名) 约翰·大卫·华盛顿
  第17届旧金山影评人协会奖 (2018)
  最好影片(提名)
  最好导演 斯派克·李
  最好男配角(提名) 亚当·德赖弗
  最好改编剧本 查利·瓦赫特尔,斯派克·李,凯文·威尔默特,大卫·拉比诺维茨
  最好原创配乐
  第52届堪萨斯影评人协会奖 (2018)
  最好改编剧本
  第3届亚特兰大影评人协会奖 (2018)
  十佳影片
  第22届美国在线影评人协会奖 (2019)
  最好影片(提名)
  最好导演(提名) 斯派克·李
  最好男配角(提名) 约翰·大卫·华盛顿
  最好男配角(提名) 亚当·德赖弗
  最好改编剧本(提名) 查利·瓦赫特尔,斯派克·李,凯文·威尔默特,大卫·拉比诺维茨
  1. Media Info:
  2. Format                                   : Matroska
  3. Format version                           : Version 2
  4. File size                                : 83.0 GiB
  5. Duration                                 : 2 h 14 min
  6. Overall bit rate mode                    : Variable
  7. Overall bit rate                         : 88.1 Mb/s
  8. Frame rate                               : 23.976 FPS
  9. Movie name                               : BlacKkKlansman.2018.2160p.BluRay.REMUX.HEVC.DTS-HD.MA.TrueHD.7.1.Atmos-FGT
  10. Encoded date                             : 2024-02-15 19:40:02 UTC
  11. Writing application                      : MakeMKV v1.17.6 win(x64-release)
  12. Writing library                          : libmakemkv v1.17.6 (1.3.10/1.5.2) win(x64-release)
  13. Video
  14. ID                                       : 1
  15. Format                                   : HEVC
  16. Format/Info                              : High Efficiency Video Coding
  17. Format profile                           : Main 10@L5.1@High
  18. HDR format                               : Dolby Vision, Version 1.0, Profile 7.6, dvhe.07.06, BL+EL+RPU, Blu-ray compatible / SMPTE ST 2086, Version HDR10, HDR10 compatible
  19. Codec ID                                 : V_MPEGH/ISO/HEVC
  20. Duration                                 : 2 h 14 min
  21. Bit rate                                 : 75.9 Mb/s
  22. Width                                    : 3 840 pixels
  23. Height                                   : 2 160 pixels
  24. Display aspect ratio                     : 16:9
  25. Frame rate mode                          : Constant
  26. Frame rate                               : 23.976 (24000/1001) FPS
  27. Color space                              : YUV
  28. Chroma subsampling                       : 4:2:0 (Type 2)
  29. Bit depth                                : 10 bits
  30. Bits/(Pixel*Frame)                       : 0.382
  31. Stream size                              : 71.5 GiB (86%)
  32. Title                                    : BlacKkKlansman.2018.2160p.BluRay.REMUX.HEVC.DTS-HD.MA.TrueHD.7.1.Atmos-FGT
  33. Language                                 : English
  34. Default                                  : No
  35. Forced                                   : No
  36. Color range                              : Limited
  37. Color primaries                          : BT.2020
  38. Transfer characteristics                 : PQ
  39. Matrix coefficients                      : BT.2020 non-constant
  40. Mastering display color primaries        : Display P3
  41. Mastering display luminance              : min: 0.0050 cd/m2, max: 1000 cd/m2
  42. Maximum Content Light Level              : 552 cd/m2
  43. Maximum Frame-Average Light Level        : 132 cd/m2
  44. Audio #1
  45. ID                                       : 2
  46. Format                                   : MLP FBA 16-ch
  47. Format/Info                              : Meridian Lossless Packing FBA with 16-channel presentation
  48. Commercial name                          : Dolby TrueHD with Dolby Atmos
  49. Codec ID                                 : A_TRUEHD
  50. Duration                                 : 2 h 14 min
  51. Bit rate mode                            : Variable
  52. Bit rate                                 : 3 950 kb/s
  53. Maximum bit rate                         : 6 804 kb/s
  54. Channel(s)                               : 8 channels
  55. Channel layout                           : L R C LFE Ls Rs Lb Rb
  56. Sampling rate                            : 48.0 kHz
  57. Frame rate                               : 1 200.000 FPS (40 SPF)
  58. Bit depth                                : 24 bits
  59. Compression mode                         : Lossless
  60. Stream size                              : 3.72 GiB (4%)
  61. Title                                    : BlacKkKlansman.2018.2160p.BluRay.REMUX.HEVC.DTS-HD.MA.TrueHD.7.1.Atmos-FGT
  62. Language                                 : English
  63. Default                                  : Yes
  64. Forced                                   : No
  65. Number of dynamic objects                : 11
  66. Bed channel count                        : 1 channel
  67. Bed channel configuration                : LFE
  68. Audio #2
  69. ID                                       : 3
  70. Format                                   : DTS XLL
  71. Format/Info                              : Digital Theater Systems
  72. Commercial name                          : DTS-HD Master Audio
  73. Codec ID                                 : A_DTS
  74. Duration                                 : 2 h 14 min
  75. Bit rate mode                            : Variable
  76. Bit rate                                 : 4 263 kb/s
  77. Channel(s)                               : 8 channels
  78. Channel layout                           : C L R LFE Lb Rb Lss Rss
  79. Sampling rate                            : 48.0 kHz
  80. Frame rate                               : 93.750 FPS (512 SPF)
  81. Bit depth                                : 24 bits
  82. Compression mode                         : Lossless
  83. Stream size                              : 4.01 GiB (5%)
  84. Title                                    : BlacKkKlansman.2018.2160p.BluRay.REMUX.HEVC.DTS-HD.MA.TrueHD.7.1.Atmos-FGT
  85. Language                                 : English
  86. Default                                  : No
  87. Forced                                   : No
  88. Audio #3
  89. ID                                       : 4
  90. Format                                   : DTS
  91. Format/Info                              : Digital Theater Systems
  92. Codec ID                                 : A_DTS
  93. Duration                                 : 2 h 14 min
  94. Bit rate mode                            : Constant
  95. Bit rate                                 : 1 509 kb/s
  96. Channel(s)                               : 6 channels
  97. Channel layout                           : C L R Ls Rs LFE
  98. Sampling rate                            : 48.0 kHz
  99. Frame rate                               : 93.750 FPS (512 SPF)
  100. Bit depth                                : 24 bits
  101. Compression mode                         : Lossy
  102. Stream size                              : 1.42 GiB (2%)
  103. Title                                    : Surround 5.1
  104. Language                                 : English
  105. Default                                  : No
  106. Forced                                   : No
  107. Audio #4
  108. ID                                       : 5
  109. Format                                   : AC-3
  110. Format/Info                              : Audio Coding 3
  111. Commercial name                          : Dolby Digital
  112. Codec ID                                 : A_AC3
  113. Duration                                 : 2 h 14 min
  114. Bit rate mode                            : Constant
  115. Bit rate                                 : 448 kb/s
  116. Channel(s)                               : 6 channels
  117. Channel layout                           : L R C LFE Ls Rs
  118. Sampling rate                            : 48.0 kHz
  119. Frame rate                               : 31.250 FPS (1536 SPF)
  120. Compression mode                         : Lossy
  121. Stream size                              : 432 MiB (0%)
  122. Title                                    : BlacKkKlansman.2018.2160p.BluRay.REMUX.HEVC.DTS-HD.MA.TrueHD.7.1.Atmos-FGT
  123. Language                                 : English
  124. Service kind                             : Complete Main
  125. Default                                  : No
  126. Forced                                   : No
复制代码









回复

使用道具 举报

蓝光币
798
发表于 2024-2-24 19:22:18 | 显示全部楼层
楼主发贴辛苦了,谢谢楼主分享!我觉得蓝光电影网是注册对了!
回复

使用道具 举报

蓝光币
322
发表于 2024-2-26 08:52:37 | 显示全部楼层

这东西我收了!谢谢楼主!
回复

使用道具 举报

懒得打字嘛,点击右侧快捷回复 【右侧内容,后台自定义】
您需要登录后才可以回帖 登录 | 立即加入

本版积分规则

Archiver| |网站地图

Copyright © 2024 Comsenz Inc. Powered by 蓝光电影网

本站内容由用户自主分享和转载自互联网,转载目的在于传递更多信息,并不代表本网赞同其观点和对其真实性负责。

如有侵权、违反国家法律政策行为,请联系我们,我们会第一时间及时清除和处理!

举报反馈邮箱:4k1080.com@gmail.com

快速回复 返回顶部 返回列表