找回密码

查看: 324|回复: 0

[惊悚] 陌生人.The Strangers 2008 Unrated 1080p BluRay REMUX AVC DTS-HD MA 5.1-EPSiLON 21.15GB

[复制链接]
蓝光币
1917
发表于 2024-2-24 18:14:02 | 显示全部楼层 |阅读模式


◎译  名 陌生人 / 只杀陌生人(港) / 陌路狂杀 / 慌邻勿近
◎片  名 The Strangers
◎年  代 2008
◎产  地 美国
◎类  别 惊悚 / 可骇
◎语  言 英语
◎上映日期 2008-05-30
◎IMDb评星  ★★★★★★☆☆☆☆
◎IMDb评分  6.1/10 from 141,994 users
◎IMDb链接  https://www.imdb.com/title/tt0482606/
◎豆瓣评星 ★★✦☆☆
◎豆瓣评分 5.0/10 from 5,222 users
◎豆瓣链接 https://movie.douban.com/subject/1921003/
◎片  长 86 分钟 / 88 分钟(unrated version)
◎导  演 布莱恩·伯蒂诺 / Bryan Bertino
◎演  员 丽芙·泰勒 / Liv Tyler
      斯科特·斯比德曼 / Scott Speedman
      格伦·豪尔顿 / Glenn Howerton
      嘉玛·沃德 / Gemma Ward
◎编  剧 布莱恩·伯蒂诺 / Bryan Bertino
◎制  片  人 科利·科诺普 / Kelli Konop
      约瑟夫·德雷克 / Joseph Drake
      内森·卡亨 / Nathan Kahane
◎摄  影 彼得·索娃 / Peter Sova
◎服  装 苏珊·考夫曼 / Susan Kaufmann
◎化  妆 温迪·贝尔 / Wendy Bell
◎视觉殊效 马克·弗伦德 / Mark Freund
◎简  介 
  刚刚加入完朋友婚礼的年轻佳耦詹姆斯(斯科特·斯比德曼 Scott Speedman 饰)和妻子克里斯汀(丽芙·泰勒 Liv Tyler 饰)酒意微醺的分开了晚宴。本已疲惫不胜的二人,却在回家的途中遭受变乱,两人不得已在陌生的情况下停车,去周边追求救济。两人在误打误撞下,意外地进入了一座烧毁的度假别墅,干脆休整一晚。
  夜色渐深,黑暗袭来。詹姆斯和克里斯汀的恶运今后起头。入夜,三个戴着面具的入侵者忽然出现在屋子四周,向他们倡议了持续攻击。面临灭亡的威胁,佳耦在激烈的求买卖志下,起头了殊死抗争。被困在屋内的二人,随即堕入了这场血腥暴力的生死之战。
◎台词金句
  Pin-Up Girl: Don't worry, it'll be easier next time...戴面具的女孩:不用担忧,下一次就会轻易多了……
  Kristen: I'm outta cigarettes. James Hoyt: I'll go get some. Kristen: I didn't mean it like that.克里斯汀:我没有卷烟了。詹姆斯·霍伊特:我去买点吧。克里斯汀:我不是这个意义。
  Dollface: Is Tamara home? James Hoyt: No, she doesn't live here...you must have the wrong house.Dollface: Are you sure?娃娃脸面具人:塔玛拉在家吗?詹姆斯·霍伊特:不,她不住在这儿……你一定是搞错了。娃娃脸面具人:你肯定吗?
  Dollface: Is Tamara here? Kristen: You already came by here. Dollface: Are you sure?娃娃脸面具人:塔玛拉在吗?克里斯汀:你已经问过这里了。娃娃脸面具人:你肯定吗?
  Mormon Boy #2: Could I have one? Pin-Up Girl: Are you a sinner? Mormon Boy #2: Sometimes.面具男孩2号:我可以试试吗?戴面具的女孩:你是一位罪人吗?面具男孩2号:有的时辰。
◎幕后揭秘
  锁不上的房门
  《陌生人》是布莱恩·伯蒂诺身兼导演和编剧两重身份的第一部电影作品……一向以来,伯蒂诺都对那种心里复杂的脚色有着高度的爱好,简直到了一种痴迷的水平,而由这样的脚色激发出来的故事,也有如迷宫一样盘曲且尽是奥秘。在伯蒂诺看来,第一次尝试创作电影剧本,挑选一个悬疑加惊悚的故事范例,恰好是一个可以以最快的速度让观众领会自己爱好的可贵机遇,他说:“早在我决议写剧本之前,就已经找到了一个与电影迷们交换的最好方式,即‘恐吓’他们,当你的故事真的可以让他们毛骨悚然的时辰,与他们停止灵魂之间的互动也就简单轻易很多了,这让一切都变得可行起来。”
  最初的时辰,布莱恩·伯蒂诺给完成的剧本起的名字是《面孔》(The Faces),至于《陌生人》,则是后来影片有了店主后,伯蒂诺和刊行公司配合约定并变动的成果,他想经过这样一个以“危险”为主的故事,为可骇电影斥地一个全新的空间,然后再变相地证实一个究竟:过于频仍的暴力描写,实在是一种无意义的行为,伯蒂诺暗示:“不管是什么时候,犯罪的实施原本就是随机的,没有人有机遇可以向受害人诠释它为什么会发生,我们唯一能做的,就是处置这些邪恶的行为所激发的结果。”作为自己的童贞作,伯蒂诺将剧本内容的根基概念圈定在了隐藏于每一小我心里的原始恐惧傍边:假如你遭受攻击,而对方的目标就是要危险你和你最爱的人,你会怎样做呢?
  在谈及创作剧本的灵感时,布莱恩·伯蒂诺也做出了响应的检讨:“今世的大大都可骇电影,都错失了一些已经很是典范的感情过度元素,所以我创作《陌生人》的动身点,就是想写一个原始、没有任何杂质、简洁精炼的故事,围绕着很少的几个脚色展开。所以我在影片中让‘受害人’以一对情侣的方式出现,我感觉这样要比硬生生被迫绑在一路的陌生人好多了,最少不会落空脚色应当办事于故事的远见和洞察力,可以帮助观众以更快的速度置身于惊骇当中……我希望可以经过这两个脚色,向观众转达一些与众分歧的感情。”
  在为剧本不中断地润饰的进程中,布莱恩·伯蒂诺留意到了一个布满着设想力的与众分歧的电影天下,属于另一个时代的可骇大师们所缔造的聪明结晶:“来历于上世纪70年月的几部典范惊悚作品,给了我很多故事灵感,恰好我也想创作一部类似的影片,挖掘一下那些处于最懦弱时辰的人物在面临危险与绝境时,会发生什么样的应激反应——这些都与70年月的电影作品所遵守的基调不约而合。”
  影片在内容上的时候跨度差不多是几个小时,起头于一切的可骇事务发生前的阿谁夜晚。故事一路头,我们会看到一对正在加入大学同学的婚礼的情人,疲惫不胜再加上有点微醉,克里斯汀和詹姆斯分开了酒宴,回到了他们的度假屋休息,未几以后,他们忽然遭到了三个戴着面具的入侵者的持续攻击……这样的内容设定原本就轻易让人堕入无助的发急傍边,但这还不是最可骇的,假如你晓得这部由布莱恩·伯蒂诺自编自导的影片,实在来历于现实生活中的实在体味,会不会有背脊发凉的感受?伯蒂诺回忆道:“可以说,《陌生人》的一部份内容一向埋藏在我童年的记忆傍边,我记得阿谁时辰我还是个小孩呢,一天早晨,怙恃都出门了,忽然有人敲我家的门,妹妹大胆地隔着门问对方找谁,那人说了一个我们听都没有听过的名字……后来,我们发现这小我不但敲了我家的门,还去了这个地域的其他几户住房,假如肯定家里没有人应门,他就会与朋友闯进去偷工具--所以我还希望经过影片给大师灌输一个平安认识:当有人拍门的时辰,你可以不开门,但最好回声,否则也有遭受危险的能够。”
  关于影片
  2004年秋天,布莱恩·伯蒂诺将完成的剧本交给了自己的司理迈克尔·康纳利,通读故事以后,康纳利感觉自己就似乎被通上了电流一样,满身一振,他有一种预见,这样的故事,必定很轻易就能找到为其投资的电影建造公司。因而,康纳利将剧本带到了眩目文娱公司,交给了制片人桑尼·墨海和他的同事兼好友罗伊·李以及道格·戴维森,他们很快就意想到了自己似乎找到了一个区分于现今支流电影浪潮、很是有特点的故事构架,墨海暗示:“与此外可骇电影比力一下,你就会发现《陌生人》里极为明显的分歧,与我们公司之前建造的同范例电影也有着很大的差别。剧本中所供给的阿谁故事,是如此地实在,看完以后你甚至会有一种不祥的预见,感觉一样的工作,完全有能够发生在自己的身上。”
  别的,桑尼·墨海还意想到,自己深受剧本吸引的缘由,并不但是源于布莱恩·伯蒂诺在说话应用上的魅力,还有贯串故事始终的那条恋爱线让民气碎的终局,他以为:“《陌生人》在报告了一场可骇的遭受的同时,还论述了一种恋爱观,两位配角克里斯汀和詹姆斯真正关心着相互——这在同范例电影中,是一个不多见的元素设定。”
  眩目文娱公司终极买下了《陌生人》的建造版权,这让布莱恩·伯蒂诺很有点洋洋自得的自豪感,由于他晓得自己的第一部作品能如此顺遂的卖进来,实在是荣幸至极,伯蒂诺笑着说:“我现在终究可以肯定,今后不用再以打杂的身份出现在电影片场了。”当伯蒂诺忙于点窜剧本,让全部故事更有力度、更有紧绷感时,另一家电影公司也加入到建造的行列,那就是曼戴特影业,之前由于两部重拍片美国版《咒怨》和美国版《咒怨2》在票房方面大获成功,而尝到了很多可骇电影的长处,所以他们对《陌生人》也抱有着类似的期待。很快,剧本就在罗格影业的鞭策下起头了前期建造和预备工作。
  可以想见,几位制片人征询过量个有能够给影片做导演的人选,可是一切人无一破例都想报酬地插足剧本,将全部故事改成更合适他们气概的作品……考虑再三,制片人们决议将布莱恩·伯蒂诺也归入斟酌范围,继而发现他很快就从其他候选人中脱颖而出,他们意想到这个汉子对《陌生人》已经根深蒂固的视觉设想,让他成为不贰的完善挑选,伯蒂诺回忆道:“在这一方面,我们总算是告竣了共鸣,他们都以为没有比我更合适的人,由于每一小我都希望在影片的拍摄进程中,可以连结住剧本的原创灵魂和偏向性。”不外这对于第一次做导演的伯蒂诺来说,并不若设想中的那般简单,他继续补充道:“虽然走进电影片场,我的身份就是导演了,可是我却时不时地会和阿谁编剧的自我停止争辩,幸亏此前和故事有关的走向以及脚色之间的平衡关系,已经获得了认可,否则我真怕自己会得品德割裂。”
  有了一个前期预备充沛的剧本在手,布莱恩·伯蒂诺对电影快点开拍的渴望也就越来越炽烈,他迫切地希望可以尽快给《陌生人》中的两位配角找到合适的饰演者,要求他们不但要具有充足的“精神”,可以承受在一个致命的夜晚长达几小时的追踪和危险,还得具有着不容轻忽的大银幕魅力,让观众情愿和他们一路在恐惧中沉溺……伯蒂诺很是满足地找到了合适设想的完善人选,那就是在电影产业中人气很是高、却鲜少出现在可骇片里的丽芙·泰勒,还有《黑夜传闻》和《黑夜传闻2:进化》中那位心不甘情不愿的狼人斯科特·斯比德曼。
  1. General
  2. Complete name                            : The.Strangers.2008.Unrated.1080p.BluRay.REMUX.AVC.DTS-HD.MA.5.1-EPSiLON.mkv
  3. Format                                   : Matroska
  4. Format version                           : Version 4 / Version 2
  5. File size                                : 21.2 GiB
  6. Duration                                 : 1h 27mn
  7. Overall bit rate                         : 34.6 Mbps
  8. Encoded date                             : UTC 2018-02-18 20:11:34
  9. Writing application                      : mkvmerge v20.0.0 ('I Am The Sun') 64-bit
  10. Writing library                          : libebml v1.3.5 + libmatroska v1.4.8
  11. Video
  12. ID                                       : 1
  13. Format                                   : AVC
  14. Format/Info                              : Advanced Video Codec
  15. Format profile                           : High@L4.1
  16. Format settings, CABAC                   : Yes
  17. Format settings, ReFrames                : 4 frames
  18. Codec ID                                 : V_MPEG4/ISO/AVC
  19. Duration                                 : 1h 27mn
  20. Bit rate mode                            : Constant
  21. Bit rate                                 : 31.0 Mbps
  22. Nominal bit rate                         : 35.0 Mbps
  23. Width                                    : 1 920 pixels
  24. Height                                   : 1 080 pixels
  25. Display aspect ratio                     : 16:9
  26. Frame rate mode                          : Constant
  27. Frame rate                               : 23.976 (24000/1001) fps
  28. Color space                              : YUV
  29. Chroma subsampling                       : 4:2:0
  30. Bit depth                                : 8 bits
  31. Scan type                                : Progressive
  32. Bits/(Pixel*Frame)                       : 0.623
  33. Stream size                              : 19.0 GiB (90%)
  34. Title                                    : MPEG-4 AVC Video / 35000 kbps / 1080p / 23,976 fps / 16:9 / High Profile 4.1
  35. Language                                 : English
  36. Default                                  : Yes
  37. Forced                                   : No
  38. Audio
  39. ID                                       : 2
  40. Format                                   : DTS
  41. Format/Info                              : Digital Theater Systems
  42. Format profile                           : MA / Core
  43. Mode                                     : 16
  44. Format settings, Endianness              : Big
  45. Codec ID                                 : A_DTS
  46. Duration                                 : 1h 27mn
  47. Bit rate mode                            : Variable / Constant
  48. Bit rate                                 : 3 575 Kbps / 1 509 Kbps
  49. Channel(s)                               : 6 channels
  50. Channel positions                        : Front: L C R, Side: L R, LFE
  51. Sampling rate                            : 48.0 KHz
  52. Frame rate                               : 93.750 fps (512 spf)
  53. Bit depth                                : 24 bits
  54. Compression mode                         : Lossless / Lossy
  55. Stream size                              : 2.19 GiB (10%)
  56. Title                                    : DTS-HD Master Audio / 5.1 / 48 kHz / 3575 kbps / 24-bit
  57. Language                                 : English
  58. Default                                  : Yes
  59. Forced                                   : No
  60. Text
  61. ID                                       : 3
  62. Format                                   : PGS
  63. Codec ID                                 : S_HDMV/PGS
  64. Codec ID/Info                            : Picture based subtitle format used on BDs/HD-DVDs
  65. Duration                                 : 1h 26mn
  66. Bit rate                                 : 11.1 Kbps
  67. Count of elements                        : 1092
  68. Stream size                              : 6.91 MiB (0%)
  69. Title                                    : SDH
  70. Language                                 : English
  71. Default                                  : No
  72. Forced                                   : No
  73. Menu
  74. 00:00:00.000                             : en:Chapter 1
  75. 00:07:35.747                             : en:Chapter 2
  76. 00:14:16.564                             : en:Chapter 3
  77. 00:21:34.585                             : en:Chapter 4
  78. 00:27:04.665                             : en:Chapter 5
  79. 00:33:56.076                             : en:Chapter 6
  80. 00:39:51.764                             : en:Chapter 7
  81. 00:46:01.008                             : en:Chapter 8
  82. 00:50:57.888                             : en:Chapter 9
  83. 00:59:13.049                             : en:Chapter 10
  84. 01:06:17.056                             : en:Chapter 11
  85. 01:15:58.929                             : en:Chapter 12
复制代码









回复

使用道具 举报

懒得打字嘛,点击右侧快捷回复 【右侧内容,后台自定义】
您需要登录后才可以回帖 登录 | 立即加入

本版积分规则

Archiver| |网站地图

Copyright © 2024 Comsenz Inc. Powered by 蓝光电影网

本站内容由用户自主分享和转载自互联网,转载目的在于传递更多信息,并不代表本网赞同其观点和对其真实性负责。

如有侵权、违反国家法律政策行为,请联系我们,我们会第一时间及时清除和处理!

举报反馈邮箱:4k1080.com@gmail.com

快速回复 返回顶部 返回列表