找回密码

查看: 341|回复: 1

[剧情] 龙之吻.Kiss of the Dragon 2001 PROPER 1080p BluRay REMUX MPEG-2 TrueHD 5.1-FraMeSToR 15.71GB

[复制链接]
蓝光币
1917
发表于 2024-2-24 18:14:07 | 显示全部楼层 |阅读模式


◎译  名 龙之吻 / 龙吻 / 猛龙战警
◎片  名 Kiss of the Dragon
◎年  代 2001
◎产  地 法国 / 美国
◎类  别 剧情 / 行动 / 惊悚 / 犯罪
◎语  言 英语 / 法语 / 汉语普通话
◎上映日期 2001-07-06(美国)
◎IMDb评星  ★★★★★★✦☆☆☆
◎IMDb评分  6.6/10 from 66,332 users
◎IMDb链接  https://www.imdb.com/title/tt0271027/
◎豆瓣评星 ★★★✦☆
◎豆瓣评分 6.9/10 from 20,125 users
◎豆瓣链接 https://movie.douban.com/subject/1299335/
◎片  长 98 分钟
◎导  演 克里斯·纳汉 / Chris Nahon
◎演  员 李连杰 / Jet Li
      布里吉特·方达 / Bridget Fonda
      切基·卡尤 / Tchéky Karyo
      里克·扬 / Ric Young
      塞瑞尔·拉菲利 / Cyril Raffaelli
      阿兰·德·卡图兰 / Alain de Catuelan
      卢德维克·伯特希尔克 / Ludovic Berthillot
      郭弼 / Burt Kwouk
      劳伦斯·阿什莉 / Laurence Ashley | 饰 Aja
◎编  剧 李连杰 / Jet Li
      吕克·贝松 / Luc Besson
      罗伯特·马克·卡门 / Robert Mark Kamen
◎制  片  人 吕克·贝松 / Luc Besson
      李连杰 / Jet Li
◎音  乐 克雷格·阿姆斯特朗 / Craig Armstrong
      超大号斜纹裤 / Chino XL
◎摄  影 蒂埃里·阿博加斯特 / Thierry Arbogast
◎美  术 Jacques Bufnoir Jacques Bufnoir
◎化  妆 Jean-Christophe Spadaccini Jean-Christophe Spadaccini
◎副  导  演 阿弗列德·洛特 / Alfred Lot
      元奎 / Corey Yuen
      William Pruss William Pruss
◎视觉殊效 Pierre Blain Pierre Blain
      Antoine Douadi Antoine Douadi
      Antoine Simkine Antoine Simkine
      Olivier Gadal Olivier Gadal
◎简  介 
  中国奸细刘剑(李连杰)受命前往巴黎帮助差人局侦破当地毒品走私团体。由于使命极端敏感,下级并没有奉告刘剑具体的使命细节。他到达巴黎后,去见了合作的差人局高级侦察理查德(切基·卡尤 Tchéky Karyo 饰)。刘坚头一次与理查德面临面,就亲眼目击他将一位嫌犯殴打致死。他现实上是贩毒团体成员,预谋杀戮并诬陷刘剑。身手强健、机智过人的刘坚单身击退了几十名理查德的打手的追击,成功脱身,并结识了美国人洁西卡(布里吉特·芳达 Bridget Fonda 饰)。洁西卡的女儿被理查德挟持,自己也由于吸毒遭到理查德的勒迫,成为妓女。因理查德的诬陷,刘剑被控告犯有谋杀罪。他与洁西卡为形式所迫,不能不联手配合对于凶险狡猾的对手......
◎台词金句
  Richard:What did you do to me?
  理查德:你对我做了什么?
  Liu Jian:I put a needle in your neck.
  刘坚:我在你脖子上扎了根针。
  Richard:That's it?
  理查德:就是阿谁?
  Liu Jian:It's called the Kiss of the Dragon.
  刘坚:它叫作龙之吻。
  Richard:Kiss my ass!
  理查德:来亲我的屁股吧!
◎幕后揭秘
  凭《致命兵器第四集》和《致命罗密欧》在好莱坞崭露头角后,行动巨星李连杰起头酝酿一部集武术、行动豪杰和棱角清楚的人物于一身的电影,他想到让一位身手非凡的政府奸细丢失于人生地疏的异国异乡。“我对拯救天下的超级行动豪杰不感爱好,”李连杰说,“我饰演的刘坚是中国最优异的奸细,他精通武术和针灸,而且风格勇敢坚毅,可他并不是超人,当使命最初堕入窘境,他完全手足无措。”为了完善显现故事、人物和关系,李连杰向享誉天下的著名影人吕克·贝松乞助,他说:“我喜好吕克的电影,出格是《这个杀手不太冷》,我晓得他能别开生面的聚焦于情节和人物,而且叙事手法也区分于大大都美国影人。”贝松以为李连杰的想法很有潜力,因而决议兼任影片编剧及建造人,并找来罗伯特·马克·卡门联手打造剧本。
  了解近10年的贝松和卡门曾在《第五元素》中有过合作,卡门在谈到本片剧本的创作经过期说:“我们天天争分夺秒的工作8小时,而且连续就是几周。吕克的专注让我难以置信,他不知倦怠的埋头苦干,不达目标誓不罢休,而且在创作故事的同时,他就已经在脑海中完成了剪辑。”虽说卡门在接手剧本后才有机遇面到李连杰,可后者的本性和品行仍对脚色的构建发挥侧重要感化,卡门说:“在构想刘坚与杰西卡的关系时,我们希望打造出一种布满滑稽、戏剧性和人性的情节动力。李连杰是我见过最坦白正直的人,所以刘坚也千篇一概,吕克和我苦心机考何种窘境才能让仆人公难以应对,除了有对折巴黎差人想置他于死地外,我们还想到让他与妓女为伍。”
  在完善剧本和物色外景地的同时,贝松决议让出演过《双面女蝎星》(美国版《尼基塔》)的布里吉特·芳达饰演杰西卡,虽然剧本那时髦未完成而且贝松不愿流露影片细节,可芳达还是绝不犹豫的赞成接拍,她说:“我相当欣赏吕克的电影,出格是其中的女性脚色。当我们碰头时,吕克对影片信息缄舌闭口,只让我看到了几页剧本,后来我晓得他想让我饰演杰西卡,可我却对影片和脚色一无所知,不外,我对吕克的作品深信不疑。”
  本片是法国广告导演克里斯·纳汉的长片童贞作,贝松一向看好他的作品,以为他能把握住本片故事中的感情头绪,而纳汉执导本片的最大发现就是李连杰的演技,他原以为李连杰只是功夫过人的行动明星,却没推测功夫之王的演技一样不成小觑。在设想片中行动场景时,李连杰与合作多年的行动指导元奎决议放弃钢丝特技和电脑殊效,而是相沿《精武豪杰》中根本而实在的陌头搏击气概。
  1. General
  2. Complete name                            : Kiss.of.the.Dragon.2001.PROPER.BluRay.1080p.TrueHD.5.1.MPEG-2.HYBRID.REMUX-FraMeSToR.mkv
  3. Format                                   : Matroska
  4. Format version                           : Version 4
  5. File size                                : 15.7 GiB
  6. Duration                                 : 1 h 38 min
  7. Overall bit rate mode                    : Variable
  8. Overall bit rate                         : 22.9 Mb/s
  9. Movie name                               : Kiss of the Dragon (2001)
  10. Encoded date                             : UTC 2022-05-08 14:15:27
  11. Writing application                      : mkvmerge v67.0.0 ('Under Stars') 64-bit
  12. Writing library                          : libebml v1.4.2 + libmatroska v1.6.4
  13. IMDB                                     : tt0271027
  14. TMDB                                     : movie/2140
  15. Video
  16. ID                                       : 1
  17. Format                                   : MPEG Video
  18. Format version                           : Version 2
  19. Format profile                           : Main@High
  20. Format settings                          : CustomMatrix / BVOP
  21. Format settings, BVOP                    : Yes
  22. Format settings, Matrix                  : Custom
  23. Format settings, GOP                     : Variable
  24. Codec ID                                 : V_MPEG2
  25. Codec ID/Info                            : MPEG 1 or 2 Video
  26. Duration                                 : 1 h 38 min
  27. Bit rate mode                            : Variable
  28. Bit rate                                 : 17.6 Mb/s
  29. Maximum bit rate                         : 30.0 Mb/s
  30. Width                                    : 1 920 pixels
  31. Height                                   : 1 080 pixels
  32. Display aspect ratio                     : 16:9
  33. Frame rate mode                          : Constant
  34. Frame rate                               : 23.976 (24000/1001) FPS
  35. Color space                              : YUV
  36. Chroma subsampling                       : 4:2:0
  37. Bit depth                                : 8 bits
  38. Scan type                                : Progressive
  39. Compression mode                         : Lossy
  40. Bits/(Pixel*Frame)                       : 0.355
  41. Time code of first frame                 : 00:00:00:00
  42. Time code source                         : Group of pictures header
  43. GOP, Open/Closed                         : Open
  44. GOP, Open/Closed of first frame          : Closed
  45. Stream size                              : 12.1 GiB (77%)
  46. Default                                  : Yes
  47. Forced                                   : No
  48. Audio #1
  49. ID                                       : 2
  50. Format                                   : MLP FBA
  51. Format/Info                              : Meridian Lossless Packing FBA
  52. Commercial name                          : Dolby TrueHD
  53. Codec ID                                 : A_TRUEHD
  54. Duration                                 : 1 h 38 min
  55. Bit rate mode                            : Variable
  56. Bit rate                                 : 4 143 kb/s
  57. Maximum bit rate                         : 5 397 kb/s
  58. Channel(s)                               : 6 channels
  59. Channel layout                           : L R C LFE Ls Rs
  60. Sampling rate                            : 48.0 kHz
  61. Frame rate                               : 1 200.000 FPS (40 SPF)
  62. Compression mode                         : Lossless
  63. Stream size                              : 2.84 GiB (18%)
  64. Title                                    : TrueHD 5.1
  65. Language                                 : English
  66. Default                                  : Yes
  67. Forced                                   : No
  68. Audio #2
  69. ID                                       : 3
  70. Format                                   : AC-3
  71. Format/Info                              : Audio Coding 3
  72. Commercial name                          : Dolby Digital
  73. Codec ID                                 : A_AC3
  74. Duration                                 : 1 h 38 min
  75. Bit rate mode                            : Constant
  76. Bit rate                                 : 640 kb/s
  77. Channel(s)                               : 6 channels
  78. Channel layout                           : L R C LFE Ls Rs
  79. Sampling rate                            : 48.0 kHz
  80. Frame rate                               : 31.250 FPS (1536 SPF)
  81. Compression mode                         : Lossy
  82. Delay relative to video                  : 13 ms
  83. Stream size                              : 449 MiB (3%)
  84. Title                                    : AC-3 5.1
  85. Language                                 : English
  86. Service kind                             : Complete Main
  87. Default                                  : No
  88. Forced                                   : No
  89. Audio #3
  90. ID                                       : 4
  91. Format                                   : AC-3
  92. Format/Info                              : Audio Coding 3
  93. Commercial name                          : Dolby Digital
  94. Codec ID                                 : A_AC3
  95. Duration                                 : 1 h 38 min
  96. Bit rate mode                            : Constant
  97. Bit rate                                 : 224 kb/s
  98. Channel(s)                               : 2 channels
  99. Channel layout                           : L R
  100. Sampling rate                            : 48.0 kHz
  101. Frame rate                               : 31.250 FPS (1536 SPF)
  102. Compression mode                         : Lossy
  103. Stream size                              : 157 MiB (1%)
  104. Title                                    : Commentary by Director Chris Nahon, Actors Jet Li, & Bridget Fonda
  105. Language                                 : English
  106. Service kind                             : Complete Main
  107. Default                                  : No
  108. Forced                                   : No
  109. Text #1
  110. ID                                       : 5
  111. Format                                   : PGS
  112. Codec ID                                 : S_HDMV/PGS
  113. Codec ID/Info                            : Picture based subtitle format used on BDs/HD-DVDs
  114. Duration                                 : 1 h 37 min
  115. Bit rate                                 : 42.3 kb/s
  116. Count of elements                        : 2544
  117. Stream size                              : 29.5 MiB (0%)
  118. Title                                    : English (SDH)
  119. Language                                 : English
  120. Default                                  : No
  121. Forced                                   : No
  122. Text #2
  123. ID                                       : 6
  124. Format                                   : PGS
  125. Codec ID                                 : S_HDMV/PGS
  126. Codec ID/Info                            : Picture based subtitle format used on BDs/HD-DVDs
  127. Duration                                 : 1 h 32 min
  128. Bit rate                                 : 28.7 kb/s
  129. Count of elements                        : 1348
  130. Stream size                              : 18.9 MiB (0%)
  131. Title                                    : German (SDH)
  132. Language                                 : German
  133. Default                                  : No
  134. Forced                                   : No
  135. Text #3
  136. ID                                       : 7
  137. Format                                   : PGS
  138. Codec ID                                 : S_HDMV/PGS
  139. Codec ID/Info                            : Picture based subtitle format used on BDs/HD-DVDs
  140. Duration                                 : 1 h 31 min
  141. Bit rate                                 : 34.4 kb/s
  142. Count of elements                        : 1326
  143. Stream size                              : 22.4 MiB (0%)
  144. Title                                    : Spanish (Castilian)
  145. Language                                 : Spanish
  146. Default                                  : No
  147. Forced                                   : No
  148. Text #4
  149. ID                                       : 8
  150. Format                                   : PGS
  151. Codec ID                                 : S_HDMV/PGS
  152. Codec ID/Info                            : Picture based subtitle format used on BDs/HD-DVDs
  153. Duration                                 : 1 h 30 min
  154. Bit rate                                 : 34.5 kb/s
  155. Count of elements                        : 1426
  156. Stream size                              : 22.3 MiB (0%)
  157. Title                                    : Spanish (Latin American)
  158. Language                                 : Spanish
  159. Default                                  : No
  160. Forced                                   : No
  161. Text #5
  162. ID                                       : 9
  163. Format                                   : PGS
  164. Codec ID                                 : S_HDMV/PGS
  165. Codec ID/Info                            : Picture based subtitle format used on BDs/HD-DVDs
  166. Duration                                 : 1 h 36 min
  167. Bit rate                                 : 73.7 kb/s
  168. Count of elements                        : 3112
  169. Stream size                              : 50.8 MiB (0%)
  170. Title                                    : Spanish (Castilian) (Commentary)
  171. Language                                 : Spanish
  172. Default                                  : No
  173. Forced                                   : No
  174. Menu
  175. 00:00:00.000                             : en:Main Titles
  176. 00:02:59.513                             : en:Mr. Smith
  177. 00:07:31.910                             : en:Welcome to Paris
  178. 00:10:41.808                             : en:A Situation
  179. 00:16:30.948                             : en:Double-Crossed
  180. 00:19:12.193                             : en:Into the Fire
  181. 00:24:15.245                             : en:Gare De L'est
  182. 00:27:13.882                             : en:Our Best Man
  183. 00:32:17.686                             : en:The Farmer's Daughter
  184. 00:36:28.311                             : en:A Kind Person
  185. 00:43:15.384                             : en:The Tour Boat Trip
  186. 00:48:04.381                             : en:On the Run
  187. 00:50:43.999                             : en:Help From Jessica
  188. 00:57:34.409                             : en:A Tough Client
  189. 01:04:31.951                             : en:The Witness
  190. 01:07:27.669                             : en:Trust
  191. 01:11:29.160                             : en:Jessica's Escape
  192. 01:14:21.165                             : en:The Orphanage
  193. 01:19:57.668                             : en:Liu Jian's Promise
  194. 01:21:54.618                             : en:A Force of One
  195. 01:25:24.995                             : en:Double Trouble
  196. 01:28:50.700                             : en:The Kiss of the Dragon
  197. 01:31:52.716                             : en:A Promise Kept
  198. 01:33:26.476                             : en:End Titles
复制代码









回复

使用道具 举报

蓝光币
780
发表于 2024-4-17 12:08:07 | 显示全部楼层
谢谢分享!!!
回复

使用道具 举报

懒得打字嘛,点击右侧快捷回复 【右侧内容,后台自定义】
您需要登录后才可以回帖 登录 | 立即加入

本版积分规则

Archiver| |网站地图

Copyright © 2024 Comsenz Inc. Powered by 蓝光电影网

本站内容由用户自主分享和转载自互联网,转载目的在于传递更多信息,并不代表本网赞同其观点和对其真实性负责。

如有侵权、违反国家法律政策行为,请联系我们,我们会第一时间及时清除和处理!

举报反馈邮箱:4k1080.com@gmail.com

快速回复 返回顶部 返回列表